<?xml version="1.0" standalone="no"?>
<!DOCTYPE svg PUBLIC "-//W3C//DTD SVG 1.1//EN" "http://www.w3.org/Graphics/SVG/1.1/DTD/svg11.dtd" >
<svg xmlns="http://www.w3.org/2000/svg">
<defs>
  <font id="icon" horiz-adv-x="1333.3333333333333">
    <font-face font-family="icon"
      units-per-em="1000" ascent="1000"
      descent="0" />
    <missing-glyph horiz-adv-x="0" />
    <glyph glyph-name="angle-circled-left"
      unicode="&#xEA01;"
      horiz-adv-x="1000" d="M578.6830357142858 221.5401785714286L635.6026785714286 278.4598214285715Q646.2053571428571 289.0625 646.2053571428571 303.5714285714286T635.6026785714286 328.6830357142857L464.2857142857143 500L635.6026785714286 671.3169642857142Q646.2053571428571 681.9196428571429 646.2053571428571 696.4285714285714T635.6026785714286 721.5401785714286L578.6830357142858 778.4598214285714Q568.0803571428571 789.0625 553.5714285714286 789.0625T528.4598214285714 778.4598214285714L275.1116071428572 525.1116071428571Q264.5089285714286 514.5089285714286 264.5089285714286 500T275.1116071428572 474.8883928571429L528.4598214285714 221.5401785714286Q539.0625 210.9375 553.5714285714286 210.9375T578.6830357142858 221.5401785714286zM928.5714285714286 500Q928.5714285714286 383.3705357142857 871.09375 284.8772321428571T715.1227678571429 128.90625T500 71.4285714285715T284.8772321428572 128.90625T128.90625 284.8772321428571T71.4285714285714 500T128.90625 715.1227678571429T284.8772321428572 871.09375T500 928.5714285714286T715.1227678571429 871.09375T871.09375 715.1227678571429T928.5714285714286 500z" />
    <glyph glyph-name="angle-circled-right"
      unicode="&#xEA02;"
      horiz-adv-x="1000" d="M471.5401785714286 221.5401785714286L724.8883928571429 474.8883928571429Q735.4910714285714 485.4910714285714 735.4910714285714 500T724.8883928571429 525.1116071428571L471.5401785714286 778.4598214285714Q460.9375 789.0625 446.4285714285715 789.0625T421.3169642857143 778.4598214285714L364.3973214285715 721.5401785714286Q353.7946428571429 710.9375 353.7946428571429 696.4285714285714T364.3973214285715 671.3169642857142L535.7142857142858 500L364.3973214285715 328.6830357142857Q353.7946428571429 318.0803571428571 353.7946428571429 303.5714285714286T364.3973214285715 278.4598214285715L421.3169642857143 221.5401785714286Q431.9196428571429 210.9375 446.4285714285715 210.9375T471.5401785714286 221.5401785714286zM928.5714285714286 500Q928.5714285714286 383.3705357142857 871.09375 284.8772321428571T715.1227678571429 128.90625T500 71.4285714285715T284.8772321428572 128.90625T128.90625 284.8772321428571T71.4285714285714 500T128.90625 715.1227678571429T284.8772321428572 871.09375T500 928.5714285714286T715.1227678571429 871.09375T871.09375 715.1227678571429T928.5714285714286 500z" />
    <glyph glyph-name="archive"
      unicode="&#xEA03;"
      horiz-adv-x="1000" d="M699.05 900H300.9S251.1 900 251.1 850H748.85C748.85 900 699.05 900 699.05 900zM848.4 750C848.4 800 798.6500000000001 800 798.6500000000001 800H201.35S151.6 800 151.6 750V700H848.4V750zM947.8999999999997 700L918.4999999999998 729.5999999999999V650H81.5V729.5999999999999L52.05 700C22.6 670.4000000000001 1.5 662.5 13.35 600C25.15 537.7 82.3 196.1999999999999 90.8 150C100.1 99.3000000000001 151.65 100 151.65 100H848.45S899.9500000000002 99.3000000000001 909.3 150C917.8 196.1999999999999 974.9 537.7 986.75 600C998.5 662.5 977.3999999999997 670.4 947.8999999999997 700zM700 400.15C700 372.4500000000001 677.55 350 649.85 350H350.15A50.15 50.15 0 0 0 300 400.15V500H350V400H650V500H700V400.15z" />
    <glyph glyph-name="article"
      unicode="&#xEA04;"
      horiz-adv-x="1000" d="M1000 875L0 875L0 1000L1000 1000zM625 625L0 625L0 750L625 750zM1000 250L0 250L0 375L1000 375zM750 0L0 0L0 125L750 125zM1000 62.5C1000 28.125 971.875 0 937.5 0S875 28.125 875 62.5S903.125 125 937.5 125C968.75 125 1000 93.75 1000 62.5z" />
    <glyph glyph-name="asterisk"
      unicode="&#xEA05;"
      horiz-adv-x="1000" d="M862.7232142857143 414.0625Q888.3928571428572 399.5535714285715 895.9263392857143 370.8147321428571T888.9508928571429 316.40625L853.2366071428571 255.0223214285715Q838.7276785714286 229.3526785714286 809.9888392857143 221.8191964285715T755.5803571428571 228.7946428571429L607.1428571428571 314.1741071428571V142.8571428571429Q607.1428571428571 113.8392857142857 585.9375 92.6339285714286T535.7142857142858 71.4285714285715H464.2857142857143Q435.2678571428572 71.4285714285715 414.0625 92.6339285714286T392.8571428571429 142.8571428571429V314.1741071428571L244.4196428571429 228.7946428571429Q218.75 214.2857142857142 190.0111607142857 221.8191964285715T146.7633928571429 255.0223214285715L111.0491071428572 316.40625Q96.5401785714286 342.0758928571429 104.0736607142857 370.8147321428571T137.2767857142857 414.0625L285.7142857142857 500L137.2767857142857 585.9375Q111.6071428571429 600.4464285714286 104.0736607142857 629.1852678571429T111.0491071428572 683.59375L146.7633928571429 744.9776785714286Q161.2723214285715 770.6473214285714 190.0111607142857 778.1808035714286T244.4196428571429 771.2053571428571L392.8571428571429 685.8258928571429V857.1428571428571Q392.8571428571429 886.1607142857142 414.0625 907.3660714285714T464.2857142857143 928.5714285714286H535.7142857142858Q564.7321428571429 928.5714285714286 585.9375 907.3660714285714T607.1428571428571 857.1428571428571V685.8258928571429L755.5803571428571 771.2053571428571Q781.25 785.7142857142858 809.9888392857143 778.1808035714286T853.2366071428571 744.9776785714286L888.9508928571429 683.59375Q903.4598214285714 657.9241071428571 895.9263392857143 629.1852678571429T862.7232142857143 585.9375L714.2857142857143 500z" />
    <glyph glyph-name="bank"
      unicode="&#xEA06;"
      horiz-adv-x="1000" d="M468.75 875L937.5 687.5V625H875Q875 612.3046875 864.990234375 603.02734375T841.30859375 593.75H96.19140625Q82.51953125 593.75 72.509765625 603.02734375T62.5 625H0V687.5zM125 562.5H250V187.5H312.5V562.5H437.5V187.5H500V562.5H625V187.5H687.5V562.5H812.5V187.5H841.30859375Q854.98046875 187.5 864.990234375 178.22265625T875 156.25V125H62.5V156.25Q62.5 168.9453125 72.509765625 178.22265625T96.19140625 187.5H125V562.5zM903.80859375 93.75Q917.48046875 93.75 927.490234375 84.47265625T937.5 62.5V0H0V62.5Q0 75.1953125 10.009765625 84.47265625T33.69140625 93.75H903.80859375z" />
    <glyph glyph-name="bell"
      unicode="&#xEA07;"
      horiz-adv-x="1000" d="M508.9285714285714 53.5714285714286Q508.9285714285714 62.5 500 62.5Q467.0758928571429 62.5 443.359375 86.2165178571428T419.6428571428572 142.8571428571429Q419.6428571428572 151.7857142857142 410.7142857142857 151.7857142857142T401.7857142857143 142.8571428571429Q401.7857142857143 102.1205357142857 430.5245535714286 73.3816964285715T500 44.6428571428571Q508.9285714285714 44.6428571428571 508.9285714285714 53.5714285714286zM964.2857142857144 214.2857142857142Q964.2857142857144 185.2678571428571 943.0803571428572 164.0625T892.8571428571429 142.8571428571429H642.8571428571429Q642.8571428571429 83.7053571428571 601.0044642857143 41.8526785714286T500 0T398.9955357142857 41.8526785714286T357.1428571428572 142.8571428571429H107.1428571428571Q78.125 142.8571428571429 56.9196428571429 164.0625T35.7142857142857 214.2857142857142Q63.6160714285714 237.7232142857142 86.4955357142857 263.3928571428571T133.9285714285715 330.078125T175.5022321428572 418.5267857142857T203.4040178571429 533.4821428571429T214.2857142857143 678.5714285714286Q214.2857142857143 763.3928571428571 279.5758928571429 836.2165178571429T450.8928571428572 924.6651785714286Q446.4285714285715 935.2678571428572 446.4285714285715 946.4285714285714Q446.4285714285715 968.75 462.0535714285714 984.375T500 1000T537.9464285714286 984.375T553.5714285714286 946.4285714285714Q553.5714285714286 935.2678571428572 549.1071428571429 924.6651785714286Q655.1339285714286 909.0401785714286 720.4241071428571 836.2165178571429T785.7142857142858 678.5714285714286Q785.7142857142858 601.0044642857142 796.5959821428571 533.4821428571429T824.4977678571429 418.5267857142857T866.0714285714286 330.078125T913.5044642857144 263.3928571428571T964.2857142857144 214.2857142857142z" />
    <glyph glyph-name="binoculars"
      unicode="&#xEA08;"
      horiz-adv-x="1000" d="M392.8571428571429 821.4285714285714V392.8571428571429Q392.8571428571429 378.3482142857142 382.2544642857143 367.7455357142857T357.1428571428572 357.1428571428571V35.7142857142857Q357.1428571428572 21.2053571428571 346.5401785714286 10.6026785714286T321.4285714285715 0H35.7142857142857Q21.2053571428571 0 10.6026785714286 10.6026785714286T0 35.7142857142857V321.4285714285715L138.9508928571429 808.59375Q142.8571428571429 821.4285714285714 156.25 821.4285714285714H392.8571428571429zM571.4285714285714 821.4285714285714V428.5714285714286H428.5714285714286V821.4285714285714H571.4285714285714zM1000 321.4285714285715V35.7142857142857Q1000 21.2053571428571 989.3973214285714 10.6026785714286T964.2857142857144 0H678.5714285714286Q664.0625 0 653.4598214285714 10.6026785714286T642.8571428571429 35.7142857142857V357.1428571428571Q628.3482142857143 357.1428571428571 617.7455357142858 367.7455357142857T607.1428571428571 392.8571428571429V821.4285714285714H843.75Q857.1428571428571 821.4285714285714 861.0491071428572 808.59375zM410.7142857142857 982.1428571428572V857.1428571428571H214.2857142857143V982.1428571428572Q214.2857142857143 989.9553571428572 219.3080357142857 994.9776785714286T232.1428571428572 1000H392.8571428571429Q400.6696428571429 1000 405.6919642857143 994.9776785714286T410.7142857142857 982.1428571428572zM785.7142857142858 982.1428571428572V857.1428571428571H589.2857142857143V982.1428571428572Q589.2857142857143 989.9553571428572 594.3080357142858 994.9776785714286T607.1428571428571 1000H767.8571428571429Q775.6696428571429 1000 780.6919642857143 994.9776785714286T785.7142857142858 982.1428571428572z" />
    <glyph glyph-name="bitbucket"
      unicode="&#xEA09;"
      horiz-adv-x="1000" d="M561.9419642857143 520.6473214285713Q566.40625 485.4910714285714 533.7611607142858 464.2857142857142T471.5401785714286 460.9375Q449.7767857142857 470.4241071428571 441.6852678571429 493.3035714285714T441.40625 539.0625T470.4241071428572 571.4285714285714Q490.5133928571429 581.4732142857142 510.8816964285714 578.125T546.5959821428571 558.3147321428571T561.9419642857143 520.6473214285713zM623.8839285714286 532.3660714285713Q616.0714285714286 592.0758928571429 560.8258928571429 623.8839285714286T450.8928571428572 631.1383928571429Q415.7366071428572 615.5133928571429 394.8102678571429 581.7522321428571T375.5580357142857 509.4866071428571Q377.7901785714286 458.7053571428571 418.8058035714286 422.9910714285715T511.1607142857143 391.7410714285715Q561.9419642857143 396.2053571428571 595.9821428571429 438.6160714285715T623.8839285714286 532.3660714285713zM757.2544642857143 834.8214285714286Q746.09375 849.8883928571429 726.0044642857143 859.6540178571429T693.6383928571429 871.9308035714286T654.0178571428571 878.90625Q491.6294642857143 905.1339285714286 338.1696428571429 877.7901785714286Q314.1741071428572 873.8839285714286 301.3392857142857 871.09375T270.6473214285715 858.8169642857142T242.7455357142857 834.8214285714286Q259.4866071428572 819.1964285714286 285.15625 809.4308035714286T326.171875 797.1540178571429T375 790.7366071428571Q502.2321428571429 774.5535714285714 625 790.1785714285714Q660.15625 794.6428571428571 674.9441964285714 796.875T715.4017857142858 808.8727678571429T757.2544642857143 834.8214285714286zM789.0625 257.2544642857142Q784.5982142857143 242.7455357142857 780.4129464285714 214.5647321428571T772.6004464285714 167.6897321428571T756.6964285714286 128.6272321428571T724.3303571428571 97.0982142857142Q676.3392857142858 70.3125 618.5825892857143 57.1986607142857T505.859375 44.921875T393.4151785714286 55.2455357142857Q367.7455357142857 59.7098214285715 347.9352678571429 65.2901785714286T305.2455357142857 80.3571428571428T264.5089285714286 104.6316964285715T235.4910714285715 138.9508928571428Q221.5401785714286 192.5223214285715 203.6830357142857 301.8973214285715L207.03125 310.8258928571429L217.0758928571429 315.8482142857142Q341.5178571428572 233.2589285714286 499.7209821428572 233.2589285714286T782.9241071428571 315.8482142857142Q794.6428571428571 312.5 796.3169642857143 303.0133928571429T793.5267857142858 277.9017857142857T789.0625 257.2544642857142zM890.0669642857143 793.5267857142858Q875.5580357142858 700.3348214285714 828.125 428.0133928571429Q825.3348214285714 411.2723214285715 813.0580357142858 396.7633928571429T788.7834821428571 374.4419642857142T758.3705357142858 357.1428571428571Q617.7455357142858 286.8303571428571 417.96875 308.0357142857142Q279.5758928571429 323.1026785714286 198.1026785714286 385.6026785714286Q189.7321428571429 392.2991071428571 183.8727678571429 400.390625T174.3861607142857 419.921875T169.3638392857143 438.8950892857142T166.015625 460.9375T162.9464285714286 480.46875Q157.9241071428572 508.3705357142857 148.1584821428572 564.1741071428571T132.5334821428572 654.296875T119.4196428571429 736.6071428571429T107.1428571428571 824.7767857142858Q108.8169642857143 839.2857142857142 116.9084821428572 851.8415178571429T134.4866071428572 872.7678571428571T159.5982142857143 889.5089285714286T185.2678571428572 902.0647321428572T212.0535714285715 912.3883928571428Q281.8080357142857 938.0580357142856 386.71875 948.1026785714286Q598.2142857142858 968.75 763.9508928571429 920.2008928571428Q850.4464285714286 894.53125 883.9285714285714 852.1205357142858Q892.8571428571429 840.9598214285714 893.1361607142858 823.6607142857142T890.0669642857143 793.5267857142858z" />
    <glyph glyph-name="bold"
      unicode="&#xEA0A;"
      horiz-adv-x="1000" d="M416.8526785714286 151.2276785714286Q458.1473214285714 133.3705357142857 494.9776785714286 133.3705357142857Q704.7991071428571 133.3705357142857 704.7991071428571 320.3125Q704.7991071428571 383.9285714285715 681.9196428571429 420.7589285714286Q666.8526785714286 445.3125 647.6004464285714 462.0535714285714T609.9330357142858 488.0022321428571T565.0111607142858 501.953125T518.1361607142858 507.8125T465.4017857142857 508.9285714285714Q424.6651785714286 508.9285714285714 409.0401785714286 503.3482142857143Q409.0401785714286 473.7723214285714 408.7611607142857 414.6205357142857T408.4821428571429 326.4508928571429Q408.4821428571429 321.9866071428571 407.9241071428572 288.7834821428571T407.6450892857143 234.9330357142857T410.15625 188.3370535714286T416.8526785714286 151.2276785714286zM409.0401785714286 567.5223214285713Q432.4776785714286 563.6160714285713 469.8660714285714 563.6160714285713Q515.625 563.6160714285713 549.6651785714286 570.8705357142858T611.0491071428571 595.703125T652.6227678571429 645.6473214285714T666.8526785714286 724.8883928571429Q666.8526785714286 763.9508928571429 650.6696428571429 793.2477678571429T606.5848214285714 839.0066964285714T546.3169642857143 863.28125T477.1205357142857 871.09375Q449.21875 871.09375 404.5758928571429 863.8392857142858Q404.5758928571429 835.9375 406.8080357142857 779.5758928571429T409.0401785714286 694.7544642857142Q409.0401785714286 679.6875 408.7611607142857 650.1116071428571T408.4821428571429 606.0267857142858Q408.4821428571429 580.3571428571429 409.0401785714286 567.5223214285713zM107.1428571428571 71.4285714285715L108.2589285714286 123.8839285714286Q116.6294642857143 126.1160714285715 155.6919642857143 132.8125T214.84375 147.8794642857142Q218.75 154.5758928571429 221.8191964285715 162.9464285714286T226.5625 181.640625T229.6316964285715 199.7767857142857T231.3058035714286 220.703125T231.5848214285715 239.6763392857142V276.2276785714286Q231.5848214285715 824.21875 219.3080357142857 848.2142857142858Q217.0758928571429 852.6785714285714 207.03125 856.3058035714286T182.1986607142857 862.4441964285714T154.5758928571429 866.3504464285714T127.5111607142857 868.8616071428571T110.4910714285714 870.5357142857142L108.2589285714286 916.8526785714286Q162.9464285714286 917.96875 297.9910714285715 923.2700892857142T506.1383928571429 928.5714285714286Q518.9732142857143 928.5714285714286 544.0848214285714 928.2924107142856T582.03125 928.0133928571428Q621.09375 928.0133928571428 658.203125 920.7589285714286T729.9107142857143 897.3214285714286T790.1785714285714 857.7008928571429T831.4732142857143 799.3861607142858T847.0982142857143 722.65625Q847.0982142857143 693.6383928571429 837.890625 669.3638392857142T816.1272321428571 629.1852678571429T780.1339285714286 597.0982142857142T739.3973214285714 571.9866071428571T692.5223214285714 549.6651785714286Q778.4598214285714 530.1339285714286 835.6584821428571 474.8883928571429T892.8571428571429 336.4955357142857Q892.8571428571429 280.6919642857142 873.3258928571429 236.328125T821.1495535714286 163.5044642857142T744.140625 115.7924107142857T652.9017857142858 88.7276785714286T554.6875 80.9151785714286Q530.1339285714286 80.9151785714286 481.0267857142857 82.5892857142857T407.3660714285715 84.2633928571428Q348.2142857142857 84.2633928571428 236.0491071428572 78.125T107.1428571428571 71.4285714285715z" />
    <glyph glyph-name="book-open"
      unicode="&#xEA0B;"
      horiz-adv-x="1000" d="M500 750S375 875 0 875V125C375 125 500 0 500 0S621.875 125 1000 125V875C625 875 500 750 500 750zM125 750C284.375 736.5625 381.25 700 437.5 668.75V168.75C381.25 198.4374999999999 284.375 234.375 125 250V750zM875 250C715.625 236.5625 618.75 200 562.5 168.75V668.75C625 712.5 718.75 750 875 762.5V262.5z" />
    <glyph glyph-name="boolean"
      unicode="&#xEA0C;"
      horiz-adv-x="1000" d="M0 437.5Q0 500.9765625 24.90234375 558.837890625T91.552734375 658.447265625T191.162109375 725.09765625T312.5 750H687.5Q750.9765625 750 808.837890625 725.09765625T908.447265625 658.447265625T975.09765625 558.837890625T1000 437.5T975.09765625 316.162109375T908.447265625 216.552734375T808.837890625 149.90234375T687.5 125H312.5Q249.0234375 125 191.162109375 149.90234375T91.552734375 216.552734375T24.90234375 316.162109375T0 437.5zM687.5 187.5Q738.28125 187.5 784.423828125 207.275390625T864.2578125 260.7421875T917.724609375 340.576171875T937.5 437.5T917.724609375 534.423828125T864.2578125 614.2578125T784.423828125 667.724609375T687.5 687.5T590.576171875 667.724609375T510.7421875 614.2578125T457.275390625 534.423828125T437.5 437.5T457.275390625 340.576171875T510.7421875 260.7421875T590.576171875 207.275390625T687.5 187.5z" />
    <glyph glyph-name="briefcase"
      unicode="&#xEA0D;"
      horiz-adv-x="1000" d="M450 500H550V400H1000S992.55 622.95 990 692.7C987.5 759 963.7499999999998 800 890 800H729.6L669.75 912.8C653.2 943.95 647.5500000000001 950 610.8 950H389.1500000000001C352.4 950 346.8 943.95 330.2 912.8C321.95 897.25 295.2 846.9 270.4000000000001 800H109.95C36.15 800 12.7 759 9.95 692.7C7.25 626.35 0 400 0 400H450V500zM382.45 854.2C393.9500000000001 875.8 397.85 880 423.3 880H576.65C602.1 880 606.05 875.8 617.45 854.2L646.1999999999999 800H353.7L382.45 854.2zM550 250H450V350H25S31.2 260.15 34.95 183.9000000000001C36.5 152.2500000000001 45.85 100 124.95 100H875C954.1 100 963.25 152.35 965 183.9000000000001C969.35 262.3000000000001 975 350 975 350H550V250z" />
    <glyph glyph-name="building-filled"
      unicode="&#xEA0E;"
      horiz-adv-x="1000" d="M821.4285714285714 1000Q835.9375 1000 846.5401785714286 989.3973214285714T857.1428571428571 964.2857142857144V35.7142857142857Q857.1428571428571 21.2053571428571 846.5401785714286 10.6026785714286T821.4285714285714 0H107.1428571428571Q92.6339285714286 0 82.03125 10.6026785714286T71.4285714285714 35.7142857142857V964.2857142857144Q71.4285714285714 978.7946428571428 82.03125 989.3973214285714T107.1428571428571 1000H821.4285714285714zM357.1428571428572 839.2857142857142V803.5714285714286Q357.1428571428572 795.7589285714286 362.1651785714286 790.7366071428571T375 785.7142857142858H410.7142857142857Q418.5267857142857 785.7142857142858 423.5491071428572 790.7366071428571T428.5714285714286 803.5714285714286V839.2857142857142Q428.5714285714286 847.0982142857142 423.5491071428572 852.1205357142858T410.7142857142857 857.1428571428571H375Q367.1875 857.1428571428571 362.1651785714286 852.1205357142858T357.1428571428572 839.2857142857142zM357.1428571428572 696.4285714285714V660.7142857142858Q357.1428571428572 652.9017857142858 362.1651785714286 647.8794642857142T375 642.8571428571429H410.7142857142857Q418.5267857142857 642.8571428571429 423.5491071428572 647.8794642857142T428.5714285714286 660.7142857142858V696.4285714285714Q428.5714285714286 704.2410714285714 423.5491071428572 709.2633928571429T410.7142857142857 714.2857142857142H375Q367.1875 714.2857142857142 362.1651785714286 709.2633928571429T357.1428571428572 696.4285714285714zM357.1428571428572 553.5714285714286V517.8571428571429Q357.1428571428572 510.0446428571428 362.1651785714286 505.0223214285714T375 500H410.7142857142857Q418.5267857142857 500 423.5491071428572 505.0223214285714T428.5714285714286 517.8571428571429V553.5714285714286Q428.5714285714286 561.3839285714286 423.5491071428572 566.40625T410.7142857142857 571.4285714285714H375Q367.1875 571.4285714285714 362.1651785714286 566.40625T357.1428571428572 553.5714285714286zM357.1428571428572 410.7142857142857V375Q357.1428571428572 367.1875 362.1651785714286 362.1651785714286T375 357.1428571428571H410.7142857142857Q418.5267857142857 357.1428571428571 423.5491071428572 362.1651785714286T428.5714285714286 375V410.7142857142857Q428.5714285714286 418.5267857142857 423.5491071428572 423.5491071428571T410.7142857142857 428.5714285714286H375Q367.1875 428.5714285714286 362.1651785714286 423.5491071428571T357.1428571428572 410.7142857142857zM285.7142857142857 232.1428571428571V267.8571428571429Q285.7142857142857 275.6696428571429 280.6919642857143 280.6919642857142T267.8571428571429 285.7142857142857H232.1428571428572Q224.3303571428572 285.7142857142857 219.3080357142857 280.6919642857142T214.2857142857143 267.8571428571429V232.1428571428571Q214.2857142857143 224.3303571428571 219.3080357142857 219.3080357142857T232.1428571428572 214.2857142857142H267.8571428571429Q275.6696428571429 214.2857142857142 280.6919642857143 219.3080357142857T285.7142857142857 232.1428571428571zM285.7142857142857 375V410.7142857142857Q285.7142857142857 418.5267857142857 280.6919642857143 423.5491071428571T267.8571428571429 428.5714285714286H232.1428571428572Q224.3303571428572 428.5714285714286 219.3080357142857 423.5491071428571T214.2857142857143 410.7142857142857V375Q214.2857142857143 367.1875 219.3080357142857 362.1651785714286T232.1428571428572 357.1428571428571H267.8571428571429Q275.6696428571429 357.1428571428571 280.6919642857143 362.1651785714286T285.7142857142857 375zM285.7142857142857 517.8571428571429V553.5714285714286Q285.7142857142857 561.3839285714286 280.6919642857143 566.40625T267.8571428571429 571.4285714285714H232.1428571428572Q224.3303571428572 571.4285714285714 219.3080357142857 566.40625T214.2857142857143 553.5714285714286V517.8571428571429Q214.2857142857143 510.0446428571428 219.3080357142857 505.0223214285714T232.1428571428572 500H267.8571428571429Q275.6696428571429 500 280.6919642857143 505.0223214285714T285.7142857142857 517.8571428571429zM285.7142857142857 660.7142857142858V696.4285714285714Q285.7142857142857 704.2410714285714 280.6919642857143 709.2633928571429T267.8571428571429 714.2857142857142H232.1428571428572Q224.3303571428572 714.2857142857142 219.3080357142857 709.2633928571429T214.2857142857143 696.4285714285714V660.7142857142858Q214.2857142857143 652.9017857142858 219.3080357142857 647.8794642857142T232.1428571428572 642.8571428571429H267.8571428571429Q275.6696428571429 642.8571428571429 280.6919642857143 647.8794642857142T285.7142857142857 660.7142857142858zM285.7142857142857 803.5714285714286V839.2857142857142Q285.7142857142857 847.0982142857142 280.6919642857143 852.1205357142858T267.8571428571429 857.1428571428571H232.1428571428572Q224.3303571428572 857.1428571428571 219.3080357142857 852.1205357142858T214.2857142857143 839.2857142857142V803.5714285714286Q214.2857142857143 795.7589285714286 219.3080357142857 790.7366071428571T232.1428571428572 785.7142857142858H267.8571428571429Q275.6696428571429 785.7142857142858 280.6919642857143 790.7366071428571T285.7142857142857 803.5714285714286zM571.4285714285714 89.2857142857142V196.4285714285715Q571.4285714285714 204.2410714285715 566.40625 209.2633928571429T553.5714285714286 214.2857142857142H375Q367.1875 214.2857142857142 362.1651785714286 209.2633928571429T357.1428571428572 196.4285714285715V89.2857142857142Q357.1428571428572 81.4732142857142 362.1651785714286 76.4508928571428T375 71.4285714285715H553.5714285714286Q561.3839285714286 71.4285714285715 566.40625 76.4508928571428T571.4285714285714 89.2857142857142zM571.4285714285714 375V410.7142857142857Q571.4285714285714 418.5267857142857 566.40625 423.5491071428571T553.5714285714286 428.5714285714286H517.8571428571429Q510.0446428571429 428.5714285714286 505.0223214285714 423.5491071428571T500 410.7142857142857V375Q500 367.1875 505.0223214285714 362.1651785714286T517.8571428571429 357.1428571428571H553.5714285714286Q561.3839285714286 357.1428571428571 566.40625 362.1651785714286T571.4285714285714 375zM571.4285714285714 517.8571428571429V553.5714285714286Q571.4285714285714 561.3839285714286 566.40625 566.40625T553.5714285714286 571.4285714285714H517.8571428571429Q510.0446428571429 571.4285714285714 505.0223214285714 566.40625T500 553.5714285714286V517.8571428571429Q500 510.0446428571428 505.0223214285714 505.0223214285714T517.8571428571429 500H553.5714285714286Q561.3839285714286 500 566.40625 505.0223214285714T571.4285714285714 517.8571428571429zM571.4285714285714 660.7142857142858V696.4285714285714Q571.4285714285714 704.2410714285714 566.40625 709.2633928571429T553.5714285714286 714.2857142857142H517.8571428571429Q510.0446428571429 714.2857142857142 505.0223214285714 709.2633928571429T500 696.4285714285714V660.7142857142858Q500 652.9017857142858 505.0223214285714 647.8794642857142T517.8571428571429 642.8571428571429H553.5714285714286Q561.3839285714286 642.8571428571429 566.40625 647.8794642857142T571.4285714285714 660.7142857142858zM571.4285714285714 803.5714285714286V839.2857142857142Q571.4285714285714 847.0982142857142 566.40625 852.1205357142858T553.5714285714286 857.1428571428571H517.8571428571429Q510.0446428571429 857.1428571428571 505.0223214285714 852.1205357142858T500 839.2857142857142V803.5714285714286Q500 795.7589285714286 505.0223214285714 790.7366071428571T517.8571428571429 785.7142857142858H553.5714285714286Q561.3839285714286 785.7142857142858 566.40625 790.7366071428571T571.4285714285714 803.5714285714286zM714.2857142857143 232.1428571428571V267.8571428571429Q714.2857142857143 275.6696428571429 709.2633928571429 280.6919642857142T696.4285714285714 285.7142857142857H660.7142857142858Q652.9017857142858 285.7142857142857 647.8794642857143 280.6919642857142T642.8571428571429 267.8571428571429V232.1428571428571Q642.8571428571429 224.3303571428571 647.8794642857143 219.3080357142857T660.7142857142858 214.2857142857142H696.4285714285714Q704.2410714285714 214.2857142857142 709.2633928571429 219.3080357142857T714.2857142857143 232.1428571428571zM714.2857142857143 375V410.7142857142857Q714.2857142857143 418.5267857142857 709.2633928571429 423.5491071428571T696.4285714285714 428.5714285714286H660.7142857142858Q652.9017857142858 428.5714285714286 647.8794642857143 423.5491071428571T642.8571428571429 410.7142857142857V375Q642.8571428571429 367.1875 647.8794642857143 362.1651785714286T660.7142857142858 357.1428571428571H696.4285714285714Q704.2410714285714 357.1428571428571 709.2633928571429 362.1651785714286T714.2857142857143 375zM714.2857142857143 517.8571428571429V553.5714285714286Q714.2857142857143 561.3839285714286 709.2633928571429 566.40625T696.4285714285714 571.4285714285714H660.7142857142858Q652.9017857142858 571.4285714285714 647.8794642857143 566.40625T642.8571428571429 553.5714285714286V517.8571428571429Q642.8571428571429 510.0446428571428 647.8794642857143 505.0223214285714T660.7142857142858 500H696.4285714285714Q704.2410714285714 500 709.2633928571429 505.0223214285714T714.2857142857143 517.8571428571429zM714.2857142857143 660.7142857142858V696.4285714285714Q714.2857142857143 704.2410714285714 709.2633928571429 709.2633928571429T696.4285714285714 714.2857142857142H660.7142857142858Q652.9017857142858 714.2857142857142 647.8794642857143 709.2633928571429T642.8571428571429 696.4285714285714V660.7142857142858Q642.8571428571429 652.9017857142858 647.8794642857143 647.8794642857142T660.7142857142858 642.8571428571429H696.4285714285714Q704.2410714285714 642.8571428571429 709.2633928571429 647.8794642857142T714.2857142857143 660.7142857142858zM714.2857142857143 803.5714285714286V839.2857142857142Q714.2857142857143 847.0982142857142 709.2633928571429 852.1205357142858T696.4285714285714 857.1428571428571H660.7142857142858Q652.9017857142858 857.1428571428571 647.8794642857143 852.1205357142858T642.8571428571429 839.2857142857142V803.5714285714286Q642.8571428571429 795.7589285714286 647.8794642857143 790.7366071428571T660.7142857142858 785.7142857142858H696.4285714285714Q704.2410714285714 785.7142857142858 709.2633928571429 790.7366071428571T714.2857142857143 803.5714285714286z" />
    <glyph glyph-name="calendar"
      unicode="&#xEA0F;"
      horiz-adv-x="1000" d="M107.1428571428571 71.4285714285715H267.8571428571429V232.1428571428571H107.1428571428571V71.4285714285715zM303.5714285714286 71.4285714285715H482.1428571428572V232.1428571428571H303.5714285714286V71.4285714285715zM107.1428571428571 267.8571428571429H267.8571428571429V446.4285714285715H107.1428571428571V267.8571428571429zM303.5714285714286 267.8571428571429H482.1428571428572V446.4285714285715H303.5714285714286V267.8571428571429zM107.1428571428571 482.1428571428571H267.8571428571429V642.8571428571429H107.1428571428571V482.1428571428571zM517.8571428571429 71.4285714285715H696.4285714285714V232.1428571428571H517.8571428571429V71.4285714285715zM303.5714285714286 482.1428571428571H482.1428571428572V642.8571428571429H303.5714285714286V482.1428571428571zM732.1428571428571 71.4285714285715H892.8571428571429V232.1428571428571H732.1428571428571V71.4285714285715zM517.8571428571429 267.8571428571429H696.4285714285714V446.4285714285715H517.8571428571429V267.8571428571429zM321.4285714285715 750V910.7142857142856Q321.4285714285715 917.96875 316.1272321428572 923.2700892857142T303.5714285714286 928.5714285714286H267.8571428571429Q260.6026785714286 928.5714285714286 255.3013392857143 923.2700892857142T250 910.7142857142856V750Q250 742.7455357142858 255.3013392857143 737.4441964285714T267.8571428571429 732.1428571428571H303.5714285714286Q310.8258928571429 732.1428571428571 316.1272321428572 737.4441964285714T321.4285714285715 750zM732.1428571428571 267.8571428571429H892.8571428571429V446.4285714285715H732.1428571428571V267.8571428571429zM517.8571428571429 482.1428571428571H696.4285714285714V642.8571428571429H517.8571428571429V482.1428571428571zM732.1428571428571 482.1428571428571H892.8571428571429V642.8571428571429H732.1428571428571V482.1428571428571zM750 750V910.7142857142856Q750 917.96875 744.6986607142858 923.2700892857142T732.1428571428571 928.5714285714286H696.4285714285714Q689.1741071428571 928.5714285714286 683.8727678571429 923.2700892857142T678.5714285714286 910.7142857142856V750Q678.5714285714286 742.7455357142858 683.8727678571429 737.4441964285714T696.4285714285714 732.1428571428571H732.1428571428571Q739.3973214285714 732.1428571428571 744.6986607142858 737.4441964285714T750 750zM964.2857142857144 785.7142857142858V71.4285714285715Q964.2857142857144 42.4107142857142 943.0803571428572 21.2053571428571T892.8571428571429 0H107.1428571428571Q78.125 0 56.9196428571429 21.2053571428571T35.7142857142857 71.4285714285715V785.7142857142858Q35.7142857142857 814.7321428571429 56.9196428571429 835.9375T107.1428571428571 857.1428571428571H178.5714285714286V910.7142857142856Q178.5714285714286 947.5446428571428 204.7991071428572 973.7723214285714T267.8571428571429 1000H303.5714285714286Q340.4017857142857 1000 366.6294642857143 973.7723214285714T392.8571428571429 910.7142857142856V857.1428571428571H607.1428571428571V910.7142857142856Q607.1428571428571 947.5446428571428 633.3705357142858 973.7723214285714T696.4285714285714 1000H732.1428571428571Q768.9732142857143 1000 795.2008928571429 973.7723214285714T821.4285714285714 910.7142857142856V857.1428571428571H892.8571428571429Q921.875 857.1428571428571 943.0803571428572 835.9375T964.2857142857144 785.7142857142858z" />
    <glyph glyph-name="cancel-circled"
      unicode="&#xEA10;"
      horiz-adv-x="1000" d="M712.6116071428571 373.8839285714286Q712.6116071428571 388.3928571428571 702.0089285714286 398.9955357142857L601.0044642857143 500L702.0089285714286 601.0044642857142Q712.6116071428571 611.6071428571429 712.6116071428571 626.1160714285714Q712.6116071428571 641.1830357142858 702.0089285714286 651.7857142857142L651.7857142857143 702.0089285714286Q641.1830357142858 712.6116071428571 626.1160714285714 712.6116071428571Q611.6071428571429 712.6116071428571 601.0044642857143 702.0089285714286L500 601.0044642857142L398.9955357142857 702.0089285714286Q388.3928571428572 712.6116071428571 373.8839285714286 712.6116071428571Q358.8169642857143 712.6116071428571 348.2142857142857 702.0089285714286L297.9910714285715 651.7857142857142Q287.3883928571429 641.1830357142858 287.3883928571429 626.1160714285714Q287.3883928571429 611.6071428571429 297.9910714285715 601.0044642857142L398.9955357142857 500L297.9910714285715 398.9955357142857Q287.3883928571429 388.3928571428571 287.3883928571429 373.8839285714286Q287.3883928571429 358.8169642857142 297.9910714285715 348.2142857142857L348.2142857142857 297.9910714285715Q358.8169642857143 287.3883928571429 373.8839285714286 287.3883928571429Q388.3928571428572 287.3883928571429 398.9955357142857 297.9910714285715L500 398.9955357142857L601.0044642857143 297.9910714285715Q611.6071428571429 287.3883928571429 626.1160714285714 287.3883928571429Q641.1830357142858 287.3883928571429 651.7857142857143 297.9910714285715L702.0089285714286 348.2142857142857Q712.6116071428571 358.8169642857142 712.6116071428571 373.8839285714286zM928.5714285714286 500Q928.5714285714286 383.3705357142857 871.09375 284.8772321428571T715.1227678571429 128.90625T500 71.4285714285715T284.8772321428572 128.90625T128.90625 284.8772321428571T71.4285714285714 500T128.90625 715.1227678571429T284.8772321428572 871.09375T500 928.5714285714286T715.1227678571429 871.09375T871.09375 715.1227678571429T928.5714285714286 500z" />
    <glyph glyph-name="cancel"
      unicode="&#xEA11;"
      horiz-adv-x="1000" d="M831.4732142857143 262.2767857142857Q831.4732142857143 239.9553571428571 815.8482142857143 224.3303571428571L739.9553571428571 148.4375Q724.3303571428571 132.8125 702.0089285714286 132.8125T664.0625 148.4375L500 312.5L335.9375 148.4375Q320.3125 132.8125 297.9910714285715 132.8125T260.0446428571429 148.4375L184.1517857142857 224.3303571428571Q168.5267857142857 239.9553571428571 168.5267857142857 262.2767857142857T184.1517857142857 300.2232142857142L348.2142857142857 464.2857142857142L184.1517857142857 628.3482142857142Q168.5267857142857 643.9732142857142 168.5267857142857 666.2946428571429T184.1517857142857 704.2410714285714L260.0446428571429 780.1339285714286Q275.6696428571429 795.7589285714286 297.9910714285715 795.7589285714286T335.9375 780.1339285714286L500 616.0714285714286L664.0625 780.1339285714286Q679.6875 795.7589285714286 702.0089285714286 795.7589285714286T739.9553571428571 780.1339285714286L815.8482142857143 704.2410714285714Q831.4732142857143 688.6160714285714 831.4732142857143 666.2946428571429T815.8482142857143 628.3482142857142L651.7857142857143 464.2857142857142L815.8482142857143 300.2232142857142Q831.4732142857143 284.5982142857142 831.4732142857143 262.2767857142857z" />
    <glyph glyph-name="chart-area"
      unicode="&#xEA12;"
      horiz-adv-x="1000" d="M1000 125V62.5H0V812.5H62.5V125H1000zM812.5 625L937.5 187.5H125V468.75L343.75 750L625 468.75z" />
    <glyph glyph-name="chat-alt"
      unicode="&#xEA13;"
      horiz-adv-x="1000" d="M785.7142857142858 571.4285714285714Q785.7142857142858 493.8616071428571 733.2589285714286 428.0133928571429T590.1227678571429 323.9397321428571T392.8571428571429 285.7142857142857Q344.8660714285715 285.7142857142857 294.6428571428572 294.6428571428571Q225.4464285714286 245.5357142857142 139.5089285714286 223.2142857142857Q119.4196428571429 218.1919642857142 91.5178571428571 214.2857142857142H89.84375Q83.7053571428571 214.2857142857142 78.4040178571429 218.75T71.9866071428571 230.46875Q71.4285714285714 232.1428571428571 71.4285714285714 234.0959821428571T71.7075892857143 237.7232142857142T72.8236607142857 241.0714285714286L74.21875 243.8616071428571L76.171875 246.9308035714286L78.4040178571429 249.7209821428571L80.9151785714286 252.5111607142857L83.1473214285714 255.0223214285715Q85.9375 258.3705357142857 95.9821428571429 268.9732142857142T110.4910714285714 285.4352678571429T123.046875 301.6183035714286T136.9977678571429 323.1026785714286T148.4375 347.65625Q79.2410714285714 387.8348214285715 39.6205357142857 446.4285714285715T0 571.4285714285714Q0 648.9955357142858 52.4553571428571 714.84375T195.5915178571429 818.9174107142858T392.8571428571429 857.1428571428571T590.1227678571429 818.9174107142858T733.2589285714286 714.84375T785.7142857142858 571.4285714285714zM1000 428.5714285714286Q1000 361.6071428571429 960.3794642857144 303.2924107142857T851.5625 204.7991071428571Q857.1428571428571 191.40625 863.0022321428572 180.2455357142857T876.953125 158.7611607142857T889.5089285714286 142.578125T904.0178571428572 126.1160714285715T916.8526785714286 112.1651785714286Q917.4107142857144 111.6071428571428 919.0848214285714 109.6540178571428T921.5959821428572 106.8638392857142T923.828125 104.0736607142857T925.78125 101.0044642857142L927.1763392857144 98.2142857142857L928.2924107142858 94.8660714285715L928.5714285714286 91.2388392857142L928.0133928571428 87.6116071428571Q926.3392857142858 79.7991071428571 920.7589285714286 75.3348214285715T908.4821428571428 71.4285714285715Q880.5803571428572 75.3348214285715 860.4910714285714 80.3571428571428Q774.5535714285714 102.6785714285715 705.3571428571429 151.7857142857142Q655.1339285714286 142.8571428571429 607.1428571428571 142.8571428571429Q455.9151785714286 142.8571428571429 343.75 216.5178571428571Q376.1160714285715 214.2857142857142 392.8571428571429 214.2857142857142Q482.7008928571429 214.2857142857142 565.2901785714286 239.3973214285715T712.6116071428571 311.3839285714286Q782.3660714285714 362.7232142857142 819.7544642857143 429.6875T857.1428571428571 571.4285714285714Q857.1428571428571 614.3973214285714 844.3080357142858 656.25Q916.2946428571428 616.6294642857142 958.1473214285714 556.9196428571429T1000 428.5714285714286z" />
    <glyph glyph-name="check"
      unicode="&#xEA14;"
      horiz-adv-x="1000" d="M775.8 748.1C771.6 746 696 671.6 572.1 547.8L375 350.9L302.9 422.7000000000001C256.1 469.4 228.4 495.9 223.8 498.2C209.2 505.5 193.3 501.7 179.1 487.5C164.7 473.1 161 457.9 168.3 443.2000000000001C173.5 432.8 349.5 256.8 359.9 251.6A33.6 33.6 0 0 1 390.1 251.6C400.6 256.9 826.5 682.7 831.7 693.2C839 707.9 835.3 723.1 820.9 737.5C806.7 751.7 790.3 755.5 775.8 748.1" />
    <glyph glyph-name="chevron-down"
      unicode="&#xEA15;"
      horiz-adv-x="1000" d="M192.8 664.8C184.2 660.2 172.8 648.6 168.3 639.8A33.1 33.1 0 0 1 168.3 609.9C173.5 599.4 474.4 298.5 484.9 293.3A33.6 33.6 0 0 1 515.1 293.3C525.6 298.5 826.5 599.4 831.7 609.9C839 624.6 835.3 639.8 820.9 654.2C806.7 668.4 790.8 672.2 776.2 664.8C771.5 662.5 725.4 617.7 634.6 527L500 392.5L365.4 527C274.6 617.7 228.5 662.5 223.8 664.8A36.8 36.8 0 0 1 192.7 664.8" />
    <glyph glyph-name="clock"
      unicode="&#xEA16;"
      horiz-adv-x="1000" d="M571.4285714285714 696.4285714285714V446.4285714285715Q571.4285714285714 438.6160714285715 566.40625 433.59375T553.5714285714286 428.5714285714286H375Q367.1875 428.5714285714286 362.1651785714286 433.59375T357.1428571428572 446.4285714285715V482.1428571428571Q357.1428571428572 489.9553571428571 362.1651785714286 494.9776785714286T375 500H500V696.4285714285714Q500 704.2410714285714 505.0223214285714 709.2633928571429T517.8571428571429 714.2857142857142H553.5714285714286Q561.3839285714286 714.2857142857142 566.40625 709.2633928571429T571.4285714285714 696.4285714285714zM803.5714285714286 500Q803.5714285714286 582.5892857142858 762.8348214285714 652.34375T652.34375 762.8348214285714T500 803.5714285714286T347.65625 762.8348214285714T237.1651785714286 652.34375T196.4285714285715 500T237.1651785714286 347.65625T347.65625 237.1651785714286T500 196.4285714285715T652.34375 237.1651785714286T762.8348214285714 347.65625T803.5714285714286 500zM928.5714285714286 500Q928.5714285714286 383.3705357142857 871.09375 284.8772321428571T715.1227678571429 128.90625T500 71.4285714285715T284.8772321428572 128.90625T128.90625 284.8772321428571T71.4285714285714 500T128.90625 715.1227678571429T284.8772321428572 871.09375T500 928.5714285714286T715.1227678571429 871.09375T871.09375 715.1227678571429T928.5714285714286 500z" />
    <glyph glyph-name="code"
      unicode="&#xEA17;"
      horiz-adv-x="1000" d="M332.51953125 191.89453125L308.10546875 167.48046875Q303.22265625 162.59765625 296.875 162.59765625T285.64453125 167.48046875L58.10546875 395.01953125Q53.22265625 399.90234375 53.22265625 406.25T58.10546875 417.48046875L285.64453125 645.01953125Q290.52734375 649.90234375 296.875 649.90234375T308.10546875 645.01953125L332.51953125 620.60546875Q337.40234375 615.72265625 337.40234375 609.375T332.51953125 598.14453125L140.625 406.25L332.51953125 214.35546875Q337.40234375 209.47265625 337.40234375 203.125T332.51953125 191.89453125zM621.09375 712.890625L438.96484375 82.51953125Q437.01171875 76.171875 431.396484375 72.998046875T419.921875 71.77734375L389.6484375 80.078125Q383.30078125 82.03125 380.126953125 87.646484375T378.90625 99.609375L561.03515625 729.98046875Q562.98828125 736.328125 568.603515625 739.501953125T580.078125 740.72265625L610.3515625 732.421875Q616.69921875 730.46875 619.873046875 724.853515625T621.09375 712.890625zM941.89453125 395.01953125L714.35546875 167.48046875Q709.47265625 162.59765625 703.125 162.59765625T691.89453125 167.48046875L667.48046875 191.89453125Q662.59765625 196.77734375 662.59765625 203.125T667.48046875 214.35546875L859.375 406.25L667.48046875 598.14453125Q662.59765625 603.02734375 662.59765625 609.375T667.48046875 620.60546875L691.89453125 645.01953125Q696.77734375 649.90234375 703.125 649.90234375T714.35546875 645.01953125L941.89453125 417.48046875Q946.77734375 412.59765625 946.77734375 406.25T941.89453125 395.01953125z" />
    <glyph glyph-name="cog"
      unicode="&#xEA18;"
      horiz-adv-x="1000" d="M642.8571428571429 500Q642.8571428571429 559.1517857142858 601.0044642857143 601.0044642857142T500 642.8571428571429T398.9955357142857 601.0044642857142T357.1428571428572 500T398.9955357142857 398.9955357142857T500 357.1428571428571T601.0044642857143 398.9955357142857T642.8571428571429 500zM928.5714285714286 560.8258928571429V436.9419642857142Q928.5714285714286 430.2455357142857 924.1071428571428 424.1071428571429T912.9464285714286 416.8526785714286L809.7098214285714 401.2276785714286Q799.1071428571429 371.09375 787.9464285714286 350.4464285714286Q807.4776785714286 322.5446428571429 847.65625 273.4375Q853.2366071428571 266.7410714285715 853.2366071428571 259.4866071428571T848.2142857142858 246.6517857142857Q833.1473214285714 226.0044642857142 792.96875 186.3839285714286T740.5133928571429 146.7633928571429Q733.8169642857143 146.7633928571429 726.0044642857143 151.7857142857142L648.9955357142858 212.0535714285715Q624.4419642857143 199.21875 598.2142857142858 190.8482142857142Q589.2857142857143 114.9553571428571 582.03125 87.0535714285715Q578.125 71.4285714285715 561.9419642857143 71.4285714285715H438.0580357142857Q430.2455357142857 71.4285714285715 424.3861607142857 76.171875T417.96875 88.1696428571428L402.34375 190.8482142857142Q375 199.7767857142857 352.1205357142857 211.4955357142857L273.4375 151.7857142857142Q267.8571428571429 146.7633928571429 259.4866071428572 146.7633928571429Q251.6741071428572 146.7633928571429 245.5357142857143 152.9017857142857Q175.2232142857143 216.5178571428571 153.4598214285715 246.6517857142857Q149.5535714285715 252.2321428571429 149.5535714285715 259.4866071428571Q149.5535714285715 266.1830357142857 154.0178571428572 272.3214285714286Q162.3883928571429 284.0401785714286 182.4776785714286 309.4308035714286T212.6116071428572 348.7723214285715Q197.5446428571429 376.6741071428571 189.7321428571429 404.0178571428571L87.6116071428571 419.0848214285715Q80.3571428571429 420.2008928571429 75.8928571428571 426.0602678571429T71.4285714285714 439.1741071428571V563.0580357142858Q71.4285714285714 569.7544642857142 75.8928571428571 575.8928571428571T86.4955357142857 583.1473214285714L190.2901785714286 598.7723214285714Q198.1026785714286 624.4419642857142 212.0535714285715 650.1116071428571Q189.7321428571429 681.9196428571429 152.34375 727.1205357142858Q146.7633928571429 733.8169642857142 146.7633928571429 740.5133928571429Q146.7633928571429 746.09375 151.7857142857143 753.3482142857142Q166.2946428571429 773.4375 206.7522321428572 813.3370535714286T259.4866071428572 853.2366071428571Q266.7410714285715 853.2366071428571 273.9955357142857 847.65625L351.0044642857143 787.9464285714286Q375.5580357142857 800.78125 401.7857142857143 809.1517857142858Q410.7142857142857 885.0446428571429 417.96875 912.9464285714286Q421.875 928.5714285714286 438.0580357142857 928.5714285714286H561.9419642857143Q569.7544642857143 928.5714285714286 575.6138392857143 923.828125T582.03125 911.8303571428572L597.65625 809.1517857142858Q625 800.2232142857142 647.8794642857143 788.5044642857142L727.1205357142858 848.2142857142858Q732.1428571428571 853.2366071428571 740.5133928571429 853.2366071428571Q747.7678571428571 853.2366071428571 754.4642857142858 847.65625Q826.4508928571429 781.25 846.5401785714286 752.7901785714286Q850.4464285714286 748.3258928571429 850.4464285714286 740.5133928571429Q850.4464285714286 733.8169642857142 845.9821428571429 727.6785714285714Q837.6116071428571 715.9598214285714 817.5223214285714 690.5691964285714T787.3883928571429 651.2276785714286Q801.8973214285714 623.3258928571429 810.2678571428571 596.5401785714286L912.3883928571428 580.9151785714286Q919.6428571428572 579.7991071428571 924.1071428571428 573.9397321428571T928.5714285714286 560.8258928571429z" />
    <glyph glyph-name="comment"
      unicode="&#xEA19;"
      horiz-adv-x="1000" d="M1000 500Q1000 402.9017857142857 933.0357142857144 320.5915178571429T751.1160714285714 190.5691964285715T500 142.8571428571429Q460.9375 142.8571428571429 419.0848214285715 147.3214285714286Q308.59375 49.6651785714286 162.3883928571429 12.2767857142857Q135.0446428571429 4.4642857142857 98.7723214285714 0Q89.2857142857143 -1.1160714285714 81.7522321428571 5.0223214285714T71.9866071428571 21.2053571428571V21.7633928571428Q70.3125 23.9955357142857 71.7075892857143 28.4598214285714T72.8236607142857 34.0401785714286T75.3348214285714 39.3415178571428L78.6830357142857 44.3638392857142L82.5892857142857 49.1071428571428L87.0535714285714 54.1294642857142Q90.9598214285714 58.59375 104.3526785714286 73.3816964285715T123.6049107142857 94.5870535714286T140.9040178571429 116.6294642857142T159.0401785714286 145.0892857142857T174.1071428571429 178.0133928571429T188.6160714285715 220.4241071428571Q101.0044642857143 270.0892857142857 50.5022321428571 343.1919642857142T0 500Q0 572.5446428571429 39.6205357142857 638.671875T146.2053571428572 752.7901785714286T305.8035714285715 828.9620535714286T500 857.1428571428571Q636.1607142857143 857.1428571428571 751.1160714285714 809.4308035714286T933.0357142857144 679.4084821428571T1000 500z" />
    <glyph glyph-name="database"
      unicode="&#xEA1A;"
      horiz-adv-x="1000" d="M500 571.4285714285714Q632.2544642857143 571.4285714285714 747.2098214285714 595.4241071428571T928.5714285714286 666.2946428571429V571.4285714285714Q928.5714285714286 532.9241071428571 871.09375 500T714.84375 447.8236607142857T500 428.5714285714286T285.15625 447.8236607142857T128.90625 500T71.4285714285714 571.4285714285714V666.2946428571429Q137.8348214285715 619.4196428571429 252.7901785714286 595.4241071428571T500 571.4285714285714zM500 142.8571428571429Q632.2544642857143 142.8571428571429 747.2098214285714 166.8526785714286T928.5714285714286 237.7232142857142V142.8571428571429Q928.5714285714286 104.3526785714286 871.09375 71.4285714285715T714.84375 19.2522321428571T500 0T285.15625 19.2522321428571T128.90625 71.4285714285715T71.4285714285714 142.8571428571429V237.7232142857142Q137.8348214285715 190.8482142857142 252.7901785714286 166.8526785714286T500 142.8571428571429zM500 357.1428571428571Q632.2544642857143 357.1428571428571 747.2098214285714 381.1383928571429T928.5714285714286 452.0089285714286V357.1428571428571Q928.5714285714286 318.6383928571429 871.09375 285.7142857142857T714.84375 233.5379464285715T500 214.2857142857142T285.15625 233.5379464285715T128.90625 285.7142857142857T71.4285714285714 357.1428571428571V452.0089285714286Q137.8348214285715 405.1339285714286 252.7901785714286 381.1383928571429T500 357.1428571428571zM500 1000Q616.0714285714286 1000 714.84375 980.7477678571428T871.09375 928.5714285714286T928.5714285714286 857.1428571428571V785.7142857142858Q928.5714285714286 747.2098214285714 871.09375 714.2857142857142T714.84375 662.109375T500 642.8571428571429T285.15625 662.109375T128.90625 714.2857142857142T71.4285714285714 785.7142857142858V857.1428571428571Q71.4285714285714 895.6473214285714 128.90625 928.5714285714286T285.15625 980.7477678571428T500 1000z" />
    <glyph glyph-name="dev"
      unicode="&#xEA1B;"
      horiz-adv-x="1000" d="M24.3 504.3L24.3 273.8L105.7 273.8C195.8 273.8 233.2 285.3 260.6 320.6C288 355.2000000000001 292.3 385.5 289.5 522.3C287.3 643.4 285.8 653.5 270 679.4C242.6 724.1 212.4 734.9 110.8 734.9L24.3 734.9L24.3 504.3zM190.8 641.9C207.3 628.3 208 625.4 208 508.7C208 395.6 207.3 388.4 192.2 373.2000000000001C179.9 361.7000000000001 167 357.4 141.8 357.4L107.2 356.6L105 506.5L103.6 655.6L138.9 655.6C162.6 655.6 179.2 651.3 190.8 641.9zM356.4 716.2C342 697.4 341.3 688.1 341.3 502.9L341.3 309.1L359.3 291.8C375.9 274.5 380.2 273.8 474.6 273.8L571.8 273.8L571.8 352.3L498.4 354.5L424.2 356.6L424.2 464.7L469.6 466.9L514.2 469L514.2 547.6L420.6 547.6L420.6 655.6L571.8 655.6L571.8 734.9L471.7 734.9C371.6 734.9 370.8 734.9 356.4 716.2zM651.1 632.6C666.2 575.7 690.7 482.7 705.9 425.1C728.9 336.5 736.8 317 756.3 297.6C770 283.2000000000001 786.6 273.8 797.4 273.8C819.7 273.8 848.5 296.1 858.6 322.1C865.8 340.8 968.1 722.6 968.1 731.3C968.1 733.4 947.9 734.9 923.4 733.4L878.1 731.3L837.7 576.4C812.5 478.4 795.9 426.5 793 435.9C787.3 453.9 715.9 728.4 715.9 732C715.9 733.4 695.1 734.9 669.8 734.9L623.7 734.9L651.1 632.6z" />
    <glyph glyph-name="discord"
      unicode="&#xEA1C;"
      horiz-adv-x="1000" d="M779.7831138652208 869.403563129357C728.3501161890008 893.0286599535244 673.1216111541441 910.4570100697134 615.4144074360961 920.3718048024786C614.4074360960497 920.604182804028 613.3230054221533 920.0619674670799 612.7807900852054 919.132455460883C605.6545313710302 906.5065840433772 597.8311386522075 890.007745933385 592.3315259488769 877.0720371804803C530.286599535244 886.3671572424478 468.5515104570101 886.3671572424478 407.7459333849729 877.0720371804803C402.2463206816422 890.3175832687839 394.0356312935709 906.5065840433772 386.9093725793959 919.132455460883C386.3671572424477 920.0619674670799 385.3601859024013 920.5267234701782 384.2757552285051 920.3718048024786C326.6460108443067 910.4570100697134 271.41750580945 893.0286599535244 219.9845081332301 869.403563129357C219.5197521301317 869.2486444616576 219.132455460883 868.861347792409 218.9000774593339 868.4740511231603C114.1750580945004 712.0836560805577 85.5151045701007 559.5662277304415 99.6127033307514 408.9078233927188C99.6127033307514 408.1332300542215 100.0774593338497 407.436096049574 100.6196746707978 407.0487993803254C169.713400464756 356.3129357087529 236.560805577072 325.4841208365608 302.2463206816422 305.1123160340821C303.3307513555384 304.8024786986832 304.4151820294346 305.1897753679318 305.1123160340821 306.0418280402788C320.6041828040279 327.2656855151046 334.4694035631294 349.5739736638265 346.3206816421379 373.1216111541441C347.0178156467855 374.5158791634392 346.3981409759876 376.1425251742835 344.9264136328428 376.6847405112316C323.0054221533695 384.9728892331526 302.0914020139427 395.1200619674671 281.9519752130132 406.6615027110767C280.3253292021689 407.5910147172734 280.2478698683192 409.9147947327654 281.719597211464 410.9992254066615C285.9024012393494 414.1750580945004 290.1626646010845 417.428350116189 294.1905499612704 420.7591014717274C294.9651432997677 421.3787761425251 295.9721146398142 421.5336948102247 296.8241673121612 421.146398140976C428.9697908597986 360.8055770720371 572.0371804802479 360.8055770720371 702.6336173508909 421.146398140976C703.4856700232378 421.5336948102247 704.4926413632843 421.4562354763749 705.2672347017816 420.8365608055771C709.2951200619675 417.5058094500387 713.4779240898529 414.1750580945004 717.8156467854377 410.9992254066615C719.2099147947328 409.9147947327654 719.1324554608831 407.5910147172734 717.5832687838885 406.6615027110767C697.4438419829589 394.9651432997676 676.5298218435322 384.9728892331526 654.5313710302091 376.6847405112316C653.1371030209141 376.1425251742835 652.4399690162664 374.5158791634392 653.1371030209141 373.1216111541441C665.2982184353215 349.6514329976761 679.163439194423 327.2656855151046 694.4229279628196 306.0418280402788C695.0426026336173 305.1897753679318 696.2044926413632 304.8024786986832 697.2114639814098 305.1123160340821C763.2068164213788 325.4841208365608 830.1316808675446 356.3129357087529 899.147947327653 407.0487993803254C899.7676219984507 407.436096049574 900.1549186676995 408.1332300542215 900.2323780015493 408.830364058869C917.0410534469406 583.0364058869094 872.0371804802479 734.3144848954298 780.7900852052672 868.4740511231603C780.6351665375678 868.861347792409 780.2478698683191 869.2486444616576 779.7831138652208 869.403563129357zM366.0728117738188 500.6196746707978C326.2587141750581 500.6196746707978 293.4934159566228 537.1804802478698 293.4934159566228 582.0294345468628C293.4934159566228 626.8783888458559 325.6390395042603 663.3617350890781 366.0728117738188 663.3617350890781C406.8164213787762 663.3617350890781 439.2718822618126 626.5685515104569 438.6522075910147 582.0294345468628C438.6522075910147 537.1804802478698 406.5065840433772 500.6196746707978 366.0728117738188 500.6196746707978zM634.3919442292796 500.6196746707978C594.577846630519 500.6196746707978 561.8125484120836 537.1804802478698 561.8125484120836 582.0294345468628C561.8125484120836 626.8783888458559 593.9581719597211 663.3617350890781 634.3919442292796 663.3617350890781C675.135553834237 663.3617350890781 707.5910147172734 626.5685515104569 706.8938807126259 582.0294345468628C706.8938807126259 537.1804802478698 675.135553834237 500.6196746707978 634.3919442292796 500.6196746707978z" />
    <glyph glyph-name="docs"
      unicode="&#xEA1D;"
      horiz-adv-x="1000" d="M946.4285714285714 785.7142857142858Q968.75 785.7142857142858 984.375 770.0892857142857T1000 732.1428571428571V53.5714285714286Q1000 31.25 984.375 15.625T946.4285714285714 0H410.7142857142857Q388.3928571428572 0 372.7678571428572 15.625T357.1428571428572 53.5714285714286V214.2857142857142H53.5714285714286Q31.25 214.2857142857142 15.625 229.9107142857142T0 267.8571428571429V642.8571428571429Q0 665.1785714285714 11.1607142857143 691.9642857142858T37.9464285714286 734.375L265.625 962.0535714285714Q281.25 977.6785714285714 308.0357142857143 988.8392857142856T357.1428571428572 1000H589.2857142857143Q611.6071428571429 1000 627.2321428571429 984.375T642.8571428571429 946.4285714285714V763.3928571428571Q680.8035714285714 785.7142857142858 714.2857142857143 785.7142857142858H946.4285714285714zM642.8571428571429 666.8526785714286L476.0044642857143 500H642.8571428571429V666.8526785714286zM285.7142857142857 881.1383928571429L118.8616071428572 714.2857142857142H285.7142857142857V881.1383928571429zM395.0892857142857 520.0892857142858L571.4285714285714 696.4285714285714V928.5714285714286H357.1428571428572V696.4285714285714Q357.1428571428572 674.1071428571429 341.5178571428572 658.4821428571429T303.5714285714286 642.8571428571429H71.4285714285714V285.7142857142857H357.1428571428572V428.5714285714286Q357.1428571428572 450.8928571428571 368.3035714285715 477.6785714285714T395.0892857142857 520.0892857142858zM928.5714285714286 71.4285714285715V714.2857142857142H714.2857142857143V482.1428571428571Q714.2857142857143 459.8214285714286 698.6607142857143 444.1964285714286T660.7142857142858 428.5714285714286H428.5714285714286V71.4285714285715H928.5714285714286z" />
    <glyph glyph-name="dot-3"
      unicode="&#xEA1E;"
      horiz-adv-x="920" d="M110 610C140.667 610 166.667 599.3330000000001 188 578C209.333 556.667 220 530.667 220 500C220 470.667 209.333 445 188 423C166.667 401 140.667 390 110 390C79.333 390 53.333 401 32 423C10.667 445 0 470.667 0 500C0 530.667 10.667 556.667 32 578C53.333 599.333 79.333 610 110 610C110 610 110 610 110 610M460 610C490.667 610 516.667 599.3330000000001 538 578C559.333 556.667 570 530.667 570 500C570 470.667 559 445 537 423C515 401 489.333 390 460 390C430.6670000000001 390 405 401 383 423C361 445 350 470.667 350 500C350 530.667 360.667 556.667 382 578C403.333 599.333 429.333 610 460 610C460 610 460 610 460 610M810 610C840.667 610 866.667 599.3330000000001 888 578C909.333 556.667 920 530.667 920 500C920 470.667 909.333 445 888 423C866.667 401 840.667 390 810 390C779.333 390 753.333 401 732 423C710.667 445 700 470.667 700 500C700 530.667 710.667 556.667 732 578C753.333 599.333 779.333 610 810 610C810 610 810 610 810 610" />
    <glyph glyph-name="dot-circled"
      unicode="&#xEA1F;"
      horiz-adv-x="1000" d="M642.8571428571429 500Q642.8571428571429 440.8482142857142 601.0044642857143 398.9955357142857T500 357.1428571428571T398.9955357142857 398.9955357142857T357.1428571428572 500T398.9955357142857 601.0044642857142T500 642.8571428571429T601.0044642857143 601.0044642857142T642.8571428571429 500zM500 803.5714285714286Q417.4107142857143 803.5714285714286 347.65625 762.8348214285714T237.1651785714286 652.34375T196.4285714285715 500T237.1651785714286 347.65625T347.65625 237.1651785714286T500 196.4285714285715T652.34375 237.1651785714286T762.8348214285714 347.65625T803.5714285714286 500T762.8348214285714 652.34375T652.34375 762.8348214285714T500 803.5714285714286zM928.5714285714286 500Q928.5714285714286 383.3705357142857 871.09375 284.8772321428571T715.1227678571429 128.90625T500 71.4285714285715T284.8772321428572 128.90625T128.90625 284.8772321428571T71.4285714285714 500T128.90625 715.1227678571429T284.8772321428572 871.09375T500 928.5714285714286T715.1227678571429 871.09375T871.09375 715.1227678571429T928.5714285714286 500z" />
    <glyph glyph-name="double"
      unicode="&#xEA20;"
      horiz-adv-x="1000" d="M381.7 174.3L279.7 174.3L313.1 375L202.7 375L202.7 466.4L327.9 466.4L347.8 590.7L240.4 590.7L240.4 683.2L363.3 683.2L397.6 886.7L498.5 886.7L465.2 683.2L541.3 683.2L574.6 886.7L676.5 886.7L642.2 683.2L757.6 683.2L757.6 590.7L626.3 590.7L605.9 466.4L720.3 466.4L720.3 375L591.5 375L558.2 174.3L457.3 174.3L490.6 375L415 375L381.7 174.3zM449.8 590.7L429.4 466.4L505 466.4L525.3 590.7L449.8 590.7z" />
    <glyph glyph-name="down-dir"
      unicode="&#xEA21;"
      horiz-adv-x="1000" d="M785.7142857142858 607.1428571428571Q785.7142857142858 592.6339285714286 775.1116071428571 582.03125L525.1116071428571 332.03125Q514.5089285714286 321.4285714285715 500 321.4285714285715T474.8883928571429 332.03125L224.8883928571429 582.03125Q214.2857142857143 592.6339285714286 214.2857142857143 607.1428571428571T224.8883928571429 632.2544642857142T250 642.8571428571429H750Q764.5089285714286 642.8571428571429 775.1116071428571 632.2544642857142T785.7142857142858 607.1428571428571z" />
    <glyph glyph-name="down-open"
      unicode="&#xEA22;"
      horiz-adv-x="1000" d="M778.4598214285714 589.2857142857142Q778.4598214285714 582.03125 772.8794642857143 576.4508928571429L512.8348214285714 316.40625Q507.2544642857143 310.8258928571429 500 310.8258928571429T487.1651785714286 316.40625L227.1205357142857 576.4508928571429Q221.5401785714286 582.03125 221.5401785714286 589.2857142857142T227.1205357142857 602.1205357142858L255.0223214285715 630.0223214285714Q260.6026785714286 635.6026785714286 267.8571428571429 635.6026785714286T280.6919642857143 630.0223214285714L500 410.7142857142857L719.3080357142858 630.0223214285714Q724.8883928571429 635.6026785714286 732.1428571428571 635.6026785714286T744.9776785714286 630.0223214285714L772.8794642857143 602.1205357142858Q778.4598214285714 596.5401785714286 778.4598214285714 589.2857142857142z" />
    <glyph glyph-name="download"
      unicode="&#xEA23;"
      horiz-adv-x="1000" d="M750 650H600V950H400V650H250L500 400L750 650zM966.9 323.4C956.4 334.6 886.35 409.5500000000001 866.3500000000001 429.1A75.15 75.15 0 0 1 814.25 450H726.4L879.5999999999999 300.3H702.3999999999999A13.7 13.7 0 0 1 690.3999999999999 293.6500000000001L649.6 200H350.4L309.6 293.65A13.8 13.8 0 0 1 297.6 300.3H120.4L273.55 450H185.75C165.9 450 146.95 442.05 133.65 429.1C113.65 409.5000000000001 43.6 334.5500000000001 33.1 323.4C8.65 297.3499999999999 -4.8 276.6 1.6 250.9500000000001L29.65 97.25C36.05 71.5500000000001 64.2 50.45 92.25 50.45H907.85C935.9 50.45 964.05 71.5500000000001 970.45 97.25L998.5 250.9500000000001C1004.8 276.6 991.4 297.35 966.8999999999997 323.4z" />
    <glyph glyph-name="edit"
      unicode="&#xEA24;"
      horiz-adv-x="1000" d="M495.5357142857143 339.2857142857142L560.2678571428571 404.0178571428571L475.4464285714286 488.8392857142857L410.7142857142857 424.1071428571429V392.8571428571429H464.2857142857143V339.2857142857142H495.5357142857143zM741.0714285714286 741.0714285714286Q732.1428571428571 750 722.65625 740.5133928571429L527.34375 545.2008928571429Q517.8571428571429 535.7142857142858 526.7857142857143 526.7857142857142T545.2008928571429 527.34375L740.5133928571429 722.65625Q750 732.1428571428571 741.0714285714286 741.0714285714286zM785.7142857142858 409.5982142857142V303.5714285714286Q785.7142857142858 237.1651785714286 738.5602678571429 190.0111607142857T625 142.8571428571429H160.7142857142857Q94.3080357142857 142.8571428571429 47.1540178571429 190.0111607142857T0 303.5714285714286V767.8571428571429Q0 834.2633928571429 47.1540178571429 881.4174107142857T160.7142857142857 928.5714285714286H625Q660.15625 928.5714285714286 690.2901785714286 914.6205357142856Q698.6607142857143 910.7142857142856 700.3348214285714 901.7857142857142Q702.0089285714286 892.2991071428571 695.3125 885.6026785714286L667.96875 858.2589285714286Q660.15625 850.4464285714286 650.1116071428571 853.7946428571429Q637.2767857142858 857.1428571428571 625 857.1428571428571H160.7142857142857Q123.8839285714286 857.1428571428571 97.65625 830.9151785714286T71.4285714285714 767.8571428571429V303.5714285714286Q71.4285714285714 266.7410714285715 97.65625 240.5133928571429T160.7142857142857 214.2857142857142H625Q661.8303571428571 214.2857142857142 688.0580357142858 240.5133928571429T714.2857142857143 303.5714285714286V373.8839285714286Q714.2857142857143 381.1383928571429 719.3080357142858 386.1607142857142L755.0223214285714 421.875Q763.3928571428571 430.2455357142857 774.5535714285714 425.78125T785.7142857142858 409.5982142857142zM732.1428571428571 821.4285714285714L892.8571428571429 660.7142857142858L517.8571428571429 285.7142857142857H357.1428571428572V446.4285714285715zM979.9107142857144 747.7678571428571L928.5714285714286 696.4285714285714L767.8571428571429 857.1428571428571L819.1964285714286 908.4821428571428Q834.8214285714286 924.1071428571428 857.1428571428571 924.1071428571428T895.0892857142858 908.4821428571428L979.9107142857144 823.6607142857142Q995.5357142857144 808.0357142857142 995.5357142857144 785.7142857142858T979.9107142857144 747.7678571428571z" />
    <glyph glyph-name="enum"
      unicode="&#xEA25;"
      horiz-adv-x="1000" d="M928.5714285714286 250V178.5714285714286Q928.5714285714286 164.0625 917.96875 153.4598214285715T892.8571428571429 142.8571428571429H107.1428571428571Q92.6339285714286 142.8571428571429 82.03125 153.4598214285715T71.4285714285714 178.5714285714286V250Q71.4285714285714 264.5089285714286 82.03125 275.1116071428571T107.1428571428571 285.7142857142857H892.8571428571429Q907.3660714285714 285.7142857142857 917.96875 275.1116071428571T928.5714285714286 250zM928.5714285714286 535.7142857142858V464.2857142857142Q928.5714285714286 449.7767857142857 917.96875 439.1741071428571T892.8571428571429 428.5714285714286H107.1428571428571Q92.6339285714286 428.5714285714286 82.03125 439.1741071428571T71.4285714285714 464.2857142857142V535.7142857142858Q71.4285714285714 550.2232142857142 82.03125 560.8258928571429T107.1428571428571 571.4285714285714H892.8571428571429Q907.3660714285714 571.4285714285714 917.96875 560.8258928571429T928.5714285714286 535.7142857142858zM928.5714285714286 821.4285714285714V750Q928.5714285714286 735.4910714285714 917.96875 724.8883928571429T892.8571428571429 714.2857142857142H107.1428571428571Q92.6339285714286 714.2857142857142 82.03125 724.8883928571429T71.4285714285714 750V821.4285714285714Q71.4285714285714 835.9375 82.03125 846.5401785714286T107.1428571428571 857.1428571428571H892.8571428571429Q907.3660714285714 857.1428571428571 917.96875 846.5401785714286T928.5714285714286 821.4285714285714z" />
    <glyph glyph-name="export"
      unicode="&#xEA26;"
      horiz-adv-x="1000" d="M750 250H100V700H229.7500000000001S264.2000000000001 744.8 338.25 800H50A50 50 0 0 1 0 750V200A50 50 0 0 1 50 150H800A50 50 0 0 1 850 200V387.3000000000001L750 305.0500000000001V250zM668.0500000000001 597.5V419.95L1000 680L668.0500000000001 929.95V773.4C265 773.4 265 375 265 375C379.1 562.4000000000001 449.3 597.5 668.0500000000001 597.5z" />
    <glyph glyph-name="eye"
      unicode="&#xEA27;"
      horiz-adv-x="1000" d="M500 780C171.95 780 0 538.4000000000001 0 500C0 461.7 171.95 220 500 220C827.9999999999999 220 1000 461.7 1000 500C1000 538.4000000000001 827.9999999999999 780 500 780zM500 284.65C377.25 284.65 277.75 381.05 277.75 500S377.25 715.45 500 715.45S722.1999999999999 618.95 722.1999999999999 500S622.7499999999999 284.65 500 284.65zM500 500C479.65 522.3499999999999 533.15 607.7 500 607.7C438.6 607.7 388.85 559.45 388.85 500S438.6 392.3 500 392.3C561.35 392.3 611.15 440.55 611.15 500C611.15 527.35 517.3 481.0500000000001 500 500z" />
    <glyph glyph-name="facebook"
      unicode="&#xEA28;"
      horiz-adv-x="1000" d="M749.4419642857143 993.3035714285714V845.9821428571429H661.8303571428571Q613.8392857142858 845.9821428571429 597.0982142857143 825.8928571428571T580.3571428571429 765.625V660.15625H743.8616071428571L722.0982142857143 494.9776785714286H580.3571428571429V71.4285714285715H409.5982142857143V494.9776785714286H267.2991071428572V660.15625H409.5982142857143V781.8080357142857Q409.5982142857143 885.6026785714286 467.6339285714286 942.8013392857144T622.2098214285714 1000Q704.2410714285714 1000 749.4419642857143 993.3035714285714z" />
    <glyph glyph-name="file"
      unicode="&#xEA29;"
      horiz-adv-x="1000" d="M229.2895 870.7105C210.5355 851.957 200 826.5215000000001 200 800V200C200 173.48 210.5355 148.045 229.2895 129.29C248.043 110.535 273.4785 100 300 100H700C726.52 100 751.9549999999999 110.535 770.7099999999999 129.29C789.465 148.045 800 173.48 800 200V564.2855H610C554.77 564.2855 509.9999999999999 609.0575 509.9999999999999 664.2860000000001V900H300C273.4785 900 248.043 889.4645 229.2895 870.7105zM610 860.7V664.2860000000001L793.67 664.2855C788.705 677.572 780.925 689.779 770.6999999999999 700L610 860.7z" />
    <glyph glyph-name="film"
      unicode="&#xEA2A;"
      horiz-adv-x="1000" d="M200 850C173.4785 850 148.043 839.4645 129.2895 820.7105C110.5355 801.957 100 776.5215000000001 100 750V250C100 223.48 110.5355 198.045 129.2895 179.29C148.043 160.535 173.4785 150 200 150H800C826.52 150 851.955 160.535 870.71 179.29C889.465 198.045 900 223.48 900 250V750C900 776.5215000000001 889.465 801.957 870.71 820.7105C851.955 839.4645 826.52 850 800 850H200zM350 750H650V550H350V750zM750 350V250H800V350H750zM650 450H350V250H650V450zM750 450H800V550H750V450zM800 650V750H750V650H800zM250 750V650H200V750H250zM250 550H200V450H250V550zM200 350H250V250H200V350z" />
    <glyph glyph-name="filter"
      unicode="&#xEA2B;"
      horiz-adv-x="1000" d="M890.0669642857143 835.3794642857142Q899.5535714285714 812.5 882.2544642857143 796.3169642857142L607.1428571428571 521.2053571428571V107.1428571428571Q607.1428571428571 83.7053571428571 585.3794642857143 74.21875Q578.125 71.4285714285715 571.4285714285714 71.4285714285715Q556.3616071428571 71.4285714285715 546.3169642857143 82.03125L403.4598214285715 224.8883928571429Q392.8571428571429 235.4910714285715 392.8571428571429 250V521.2053571428571L117.7455357142857 796.3169642857142Q100.4464285714286 812.5 109.9330357142857 835.3794642857142Q119.4196428571429 857.1428571428571 142.8571428571429 857.1428571428571H857.1428571428571Q880.5803571428572 857.1428571428571 890.0669642857143 835.3794642857142z" />
    <glyph glyph-name="fire"
      unicode="&#xEA2C;"
      horiz-adv-x="1000" d="M892.8571428571429 53.5714285714286V17.8571428571428Q892.8571428571429 10.6026785714286 887.5558035714286 5.3013392857142T875 0H125Q117.7455357142857 0 112.4441964285714 5.3013392857142T107.1428571428571 17.8571428571428V53.5714285714286Q107.1428571428571 60.8258928571428 112.4441964285714 66.1272321428571T125 71.4285714285715H875Q882.2544642857143 71.4285714285715 887.5558035714286 66.1272321428571T892.8571428571429 53.5714285714286zM750 642.8571428571429Q750 599.3303571428571 736.328125 562.5T700.6138392857143 499.7209821428571T651.7857142857143 450.6138392857142T598.2142857142858 407.3660714285715T549.3861607142858 367.1875T513.671875 321.7075892857142T500 267.8571428571429Q500 214.2857142857142 537.3883928571429 142.8571428571429L535.15625 143.4151785714286L535.7142857142858 142.8571428571429Q485.4910714285714 165.7366071428571 446.4285714285715 189.1741071428571T369.140625 244.9776785714286T305.8035714285715 313.3370535714286T265.3459821428572 397.3214285714286T250 500Q250 543.5267857142858 263.671875 580.3571428571429T299.3861607142857 643.1361607142858T348.2142857142857 692.2433035714286T401.7857142857143 735.4910714285714T450.6138392857143 775.6696428571429T486.328125 821.1495535714286T500 875Q500 927.4553571428572 463.1696428571429 1000L464.84375 999.4419642857144L464.2857142857143 1000Q514.5089285714286 977.1205357142856 553.5714285714286 953.6830357142856T630.859375 897.8794642857142T694.1964285714286 829.5200892857142T734.6540178571429 745.5357142857142T750 642.8571428571429z" />
    <glyph glyph-name="float"
      unicode="&#xEA2D;"
      horiz-adv-x="1000" d="M381.7 174.3L279.7 174.3L313.1 375L202.7 375L202.7 466.4L327.9 466.4L347.8 590.7L240.4 590.7L240.4 683.2L363.3 683.2L397.6 886.7L498.5 886.7L465.2 683.2L541.3 683.2L574.6 886.7L676.5 886.7L642.2 683.2L757.6 683.2L757.6 590.7L626.3 590.7L605.9 466.4L720.3 466.4L720.3 375L591.5 375L558.2 174.3L457.3 174.3L490.6 375L415 375L381.7 174.3zM449.8 590.7L429.4 466.4L505 466.4L525.3 590.7L449.8 590.7z" />
    <glyph glyph-name="folder"
      unicode="&#xEA2E;"
      horiz-adv-x="1000" d="M920.25 760.05C914.7 782.05 887.5 800 859.75 800H519.05C491.35 800 452.55 815.9 432.9500000000001 835.35L403.1500000000001 864.75C383.55 884.2 344.8 900 317.1 900H154.35C126.6 900 101.4 877.65 98.35 850.3L83.75 700H930.3L920.25 760.05zM970.6 650H29.4A29 29 0 0 1 0.55 618.25L46.7 134.8A38.5 38.5 0 0 1 85 100H915A38.5 38.5 0 0 1 953.3000000000002 134.8000000000001L999.4500000000002 618.2500000000001A29 29 0 0 1 970.6 650z" />
    <glyph glyph-name="github"
      unicode="&#xEA2F;"
      horiz-adv-x="1000" d="M500 928.5714285714286Q616.6294642857143 928.5714285714286 715.1227678571429 871.09375T871.09375 715.1227678571429T928.5714285714286 500Q928.5714285714286 359.9330357142857 846.8191964285714 248.046875T635.6026785714286 93.1919642857142Q620.5357142857143 90.4017857142857 613.28125 97.0982142857142T606.0267857142858 113.8392857142857Q606.0267857142858 115.5133928571428 606.3058035714286 156.5290178571429T606.5848214285714 231.5848214285715Q606.5848214285714 285.7142857142857 577.5669642857143 310.8258928571429Q609.375 314.1741071428571 634.765625 320.8705357142857T687.2209821428571 342.6339285714286T732.421875 379.7433035714286T761.9977678571429 438.3370535714286T773.4375 522.3214285714286Q773.4375 588.7276785714286 729.3526785714286 637.2767857142858Q750 688.0580357142858 724.8883928571429 751.1160714285714Q709.2633928571429 756.1383928571429 679.6875 744.9776785714286T628.3482142857143 720.4241071428571L607.1428571428571 707.03125Q555.2455357142858 721.5401785714286 500 721.5401785714286T392.8571428571429 707.03125Q383.9285714285715 713.1696428571429 369.140625 722.0982142857142T322.5446428571429 743.5825892857142T275.1116071428572 751.1160714285714Q250 688.0580357142858 270.6473214285715 637.2767857142858Q226.5625 588.7276785714286 226.5625 522.3214285714286Q226.5625 474.8883928571429 238.0022321428572 438.6160714285715T267.2991071428572 380.0223214285715T312.2209821428572 342.6339285714286T364.6763392857143 320.8705357142857T421.875 310.8258928571429Q400.1116071428572 290.7366071428571 394.53125 253.3482142857142Q382.8125 247.7678571428571 369.4196428571429 244.9776785714286T337.6116071428572 242.1875T301.0602678571429 254.1852678571429T270.0892857142857 289.0625Q259.4866071428572 306.9196428571429 243.0245535714286 318.0803571428571T215.4017857142857 331.4732142857142L204.2410714285715 333.1473214285715Q192.5223214285715 333.1473214285715 188.0580357142857 330.6361607142857T185.2678571428572 324.21875T190.2901785714286 316.40625T197.5446428571429 309.7098214285715L201.4508928571429 306.9196428571429Q213.7276785714286 301.3392857142857 225.7254464285715 285.7142857142857T243.3035714285715 257.2544642857142L248.8839285714286 244.4196428571429Q256.1383928571429 223.2142857142857 273.4375 210.1004464285715T310.8258928571429 193.359375T349.609375 189.453125T380.5803571428572 191.40625L393.4151785714286 193.6383928571429Q393.4151785714286 172.4330357142857 393.6941964285715 144.2522321428571T393.9732142857143 113.8392857142857Q393.9732142857143 103.7946428571428 386.71875 97.0982142857142T364.3973214285715 93.1919642857142Q234.9330357142857 136.1607142857142 153.1808035714286 248.046875T71.4285714285714 500Q71.4285714285714 616.6294642857142 128.90625 715.1227678571429T284.8772321428572 871.09375T500 928.5714285714286zM233.8169642857143 313.0580357142857Q235.4910714285715 316.9642857142857 229.9107142857143 319.7544642857142Q224.3303571428572 321.4285714285715 222.65625 318.6383928571429Q220.9821428571429 314.7321428571429 226.5625 311.9419642857142Q231.5848214285715 308.59375 233.8169642857143 313.0580357142857zM251.1160714285715 294.0848214285715Q255.0223214285715 296.875 250 303.0133928571429Q244.4196428571429 308.0357142857142 241.0714285714286 304.6875Q237.1651785714286 301.8973214285715 242.1875 295.7589285714286Q247.7678571428572 290.1785714285715 251.1160714285715 294.0848214285715zM267.8571428571429 268.9732142857142Q272.8794642857143 272.8794642857142 267.8571428571429 279.5758928571429Q263.3928571428572 286.8303571428571 258.3705357142857 282.9241071428571Q253.3482142857143 280.1339285714286 258.3705357142857 272.8794642857142T267.8571428571429 268.9732142857142zM291.2946428571429 245.5357142857142Q295.7589285714286 250 289.0625 256.1383928571429Q282.3660714285715 262.8348214285715 277.9017857142857 257.8125Q272.8794642857143 253.3482142857142 280.1339285714286 247.2098214285715Q286.8303571428572 240.5133928571429 291.2946428571429 245.5357142857142zM323.1026785714286 231.5848214285715Q324.7767857142857 237.7232142857142 315.8482142857143 240.5133928571429Q307.4776785714286 242.7455357142857 305.2455357142857 236.6071428571429T312.5 228.2366071428571Q320.8705357142857 224.8883928571429 323.1026785714286 231.5848214285715zM358.2589285714286 228.7946428571429Q358.2589285714286 236.0491071428571 348.7723214285715 234.9330357142857Q339.84375 234.9330357142857 339.84375 228.7946428571429Q339.84375 221.5401785714286 349.3303571428572 222.65625Q358.2589285714286 222.65625 358.2589285714286 228.7946428571429zM390.625 234.375Q389.5089285714286 240.5133928571429 380.5803571428572 239.3973214285715Q371.6517857142857 237.7232142857142 372.7678571428572 231.0267857142857T382.8125 226.5625T390.625 234.375z" />
    <glyph glyph-name="gitlab"
      unicode="&#xEA30;"
      horiz-adv-x="1000" d="M58.0357142857143 606.0267857142858L500 39.6205357142857L15.625 391.1830357142857Q5.5803571428571 398.4375 1.6741071428571 410.4352678571429T1.6741071428571 434.1517857142857L58.0357142857143 606.0267857142858zM315.8482142857143 606.0267857142858H684.1517857142858L500 39.6205357142857zM205.3571428571429 947.5446428571428L315.8482142857143 606.0267857142858H58.0357142857143L168.5267857142857 947.5446428571428Q172.9910714285715 960.3794642857144 186.9419642857143 960.3794642857144T205.3571428571429 947.5446428571428zM941.9642857142858 606.0267857142858L998.3258928571428 434.1517857142857Q1002.2321428571428 422.4330357142857 998.3258928571428 410.4352678571429T984.375 391.1830357142857L500 39.6205357142857L941.9642857142858 606.0267857142858zM941.9642857142858 606.0267857142858H684.1517857142858L794.6428571428571 947.5446428571428Q799.1071428571429 960.3794642857144 813.0580357142858 960.3794642857144T831.4732142857143 947.5446428571428z" />
    <glyph glyph-name="glasses"
      unicode="&#xEA31;"
      horiz-adv-x="1000" d="M932.4566666666668 505.9225H610.3925L651.9833333333333 316.0958333333333H912.195L932.4566666666668 505.9225zM388.5725 505.9225H66.5075L86.77 316.0958333333333H346.9808333333333L388.5725 505.9225zM991.1116666666668 561.3775C998.2241666666667 553.5575 1001.0683333333334 545.0258333333334 999.6425000000002 535.7825L971.9158333333336 279.8366666666667C968.1125000000002 263.1025000000001 956.1841666666668 250.2025 939.9216666666669 249.9766666666667H626.3883333333335C609.5283333333335 251.0975000000001 598.3558333333335 261.6725 595.4625000000002 276.6375000000001L545.3400000000001 499.5233333333334C518.2175000000001 516.4158333333334 482.5525000000001 513.9541666666668 453.6258333333334 501.6566666666667L403.5033333333335 276.6383333333335C399.5266666666668 260.4283333333334 387.9591666666668 250.1650000000001 372.5766666666668 249.9775000000001H59.0425C41.4041666666667 251.3708333333334 29.625 264.0941666666668 28.1158333333333 279.8375L0.3875 535.7825C-1.0341666666667 545.7358333333332 1.4541666666667 554.2674999999999 7.8525 561.3775L368.3091666666667 746.9383333333333C385.5991666666667 754.6508333333334 402.7233333333334 747.2433333333333 409.9000000000001 732.0083333333333C415.9191666666667 714.6066666666667 412.0108333333334 694.7850000000001 396.0366666666667 687.2175L167.8191666666667 583.7725H827.9458333333334L599.7275000000001 687.2183333333332C582.7983333333333 696.815 578.4200000000001 716.1424999999999 584.7975 732.0091666666667C593.8491666666666 748.2416666666667 612.1841666666667 753.63 627.4549999999999 746.9391666666667L991.1116666666668 561.3775z" />
    <glyph glyph-name="google"
      unicode="&#xEA32;"
      horiz-adv-x="1000" d="M500 561.3839285714286H904.5758928571428Q911.2723214285714 523.9955357142858 911.2723214285714 489.9553571428571Q911.2723214285714 368.8616071428571 860.4910714285714 273.7165178571429T715.6808035714286 125T500 71.4285714285715Q412.3883928571429 71.4285714285715 333.1473214285715 105.1897321428571T196.4285714285715 196.4285714285715T105.1897321428571 333.1473214285715T71.4285714285714 500T105.1897321428571 666.8526785714286T196.4285714285715 803.5714285714286T333.1473214285715 894.8102678571429T500 928.5714285714286Q667.4107142857143 928.5714285714286 787.3883928571429 816.40625L670.7589285714286 704.2410714285714Q602.1205357142858 770.6473214285714 500 770.6473214285714Q428.0133928571429 770.6473214285714 366.9084821428572 734.375T270.0892857142857 635.8816964285714T234.375 500T270.0892857142857 364.1183035714286T366.9084821428572 265.625T500 229.3526785714286Q548.5491071428571 229.3526785714286 589.2857142857143 242.7455357142857T656.25 276.2276785714286T702.0089285714286 321.9866071428571T730.7477678571429 370.5357142857142T743.3035714285714 414.0625H500V561.3839285714286z" />
    <glyph glyph-name="hackernews"
      unicode="&#xEA33;"
      horiz-adv-x="1000" d="M83 984H244L441 683C473.65625 633 507.6562500000001 576.34375 543.03125 513C575 569.65625 611.34375 628.65625 651.9999999999999 690L845.9999999999999 984H1000L601 408.03125V-15.9687500000001H468V408.03125L83 984z" />
    <glyph glyph-name="header"
      unicode="&#xEA34;"
      horiz-adv-x="1000" d="M938.6160714285714 71.4285714285715Q914.0625 71.4285714285715 864.6763392857143 73.3816964285715T790.1785714285714 75.3348214285715Q765.625 75.3348214285715 716.5178571428571 73.3816964285715T642.8571428571429 71.4285714285715Q629.4642857142858 71.4285714285715 622.2098214285714 82.8683035714286T614.9553571428571 108.2589285714286Q614.9553571428571 125.5580357142857 624.4419642857143 133.9285714285715T646.2053571428571 143.4151785714286T674.6651785714286 147.3214285714286T699.7767857142858 155.6919642857142Q718.1919642857143 167.4107142857142 718.1919642857143 233.8169642857142L717.6339285714286 452.0089285714286Q717.6339285714286 463.7276785714286 717.0758928571429 469.3080357142857Q709.8214285714286 471.5401785714286 689.1741071428571 471.5401785714286H312.5Q291.2946428571429 471.5401785714286 284.0401785714286 469.3080357142857Q283.4821428571429 463.7276785714286 283.4821428571429 452.0089285714286L282.9241071428572 244.9776785714286Q282.9241071428572 165.7366071428571 303.5714285714286 153.4598214285715Q312.5 147.8794642857142 330.3571428571429 146.2053571428571T362.1651785714286 144.2522321428571T387.2767857142857 135.8816964285715T398.4375 110.4910714285715Q398.4375 95.9821428571428 391.4620535714286 83.7053571428571T371.09375 71.4285714285715Q344.8660714285715 71.4285714285715 293.2477678571429 73.3816964285715T215.9598214285715 75.3348214285715Q191.9642857142857 75.3348214285715 144.53125 73.3816964285715T73.6607142857143 71.4285714285715Q60.8258928571429 71.4285714285715 53.8504464285714 83.1473214285715T46.875 108.2589285714286Q46.875 125 55.5245535714286 133.3705357142857T75.6138392857143 143.1361607142857T102.1205357142857 147.3214285714286T125.5580357142857 155.6919642857142Q143.9732142857143 168.5267857142857 143.9732142857143 235.4910714285715L143.4151785714286 267.2991071428571V720.9821428571429Q143.4151785714286 722.65625 143.6941964285715 735.4910714285714T143.6941964285715 755.859375T142.8571428571429 777.34375T140.9040178571429 800.78125T137.2767857142857 821.1495535714286T131.1383928571429 838.7276785714286T122.2098214285714 848.7723214285714Q113.8392857142857 854.3526785714286 97.0982142857143 855.46875T67.5223214285714 856.5848214285714T44.6428571428571 864.3973214285714T34.5982142857143 889.5089285714286Q34.5982142857143 904.0178571428572 41.2946428571429 916.2946428571428T61.3839285714286 928.5714285714286Q87.0535714285714 928.5714285714286 138.671875 926.6183035714286T215.9598214285715 924.6651785714286Q239.3973214285715 924.6651785714286 286.5513392857143 926.6183035714286T357.1428571428572 928.5714285714286Q371.09375 928.5714285714286 378.0691964285715 916.2946428571428T385.0446428571429 889.5089285714286Q385.0446428571429 872.7678571428571 375.5580357142857 865.234375T354.0736607142857 857.1428571428571T326.4508928571429 854.9107142857142T302.4553571428572 847.65625Q282.9241071428572 835.9375 282.9241071428572 758.3705357142857L283.4821428571429 579.7991071428571Q283.4821428571429 568.0803571428571 284.0401785714286 561.9419642857142Q291.2946428571429 560.2678571428571 305.8035714285715 560.2678571428571H695.8705357142858Q709.8214285714286 560.2678571428571 717.0758928571429 561.9419642857142Q717.6339285714286 568.0803571428571 717.6339285714286 579.7991071428571L718.1919642857143 758.3705357142857Q718.1919642857143 835.9375 698.6607142857143 847.65625Q688.6160714285714 853.7946428571429 666.015625 854.6316964285714T629.1852678571429 861.8861607142858T614.9553571428571 889.5089285714286Q614.9553571428571 904.0178571428572 621.9308035714286 916.2946428571428T642.8571428571429 928.5714285714286Q667.4107142857143 928.5714285714286 716.5178571428571 926.6183035714286T790.1785714285714 924.6651785714286Q814.1741071428571 924.6651785714286 862.1651785714286 926.6183035714286T934.1517857142858 928.5714285714286Q948.1026785714286 928.5714285714286 955.078125 916.2946428571428T962.0535714285714 889.5089285714286Q962.0535714285714 872.7678571428571 952.2879464285714 864.9553571428571T929.9665178571428 856.8638392857142T901.2276785714286 855.1897321428571T876.6741071428572 848.2142857142858Q857.1428571428571 835.3794642857142 857.1428571428571 758.3705357142857L857.7008928571429 232.1428571428571Q857.7008928571429 165.7366071428571 876.6741071428572 154.0178571428571Q885.6026785714286 148.4375 902.34375 146.484375T932.1986607142858 143.9732142857142T955.3571428571428 135.3236607142857T965.4017857142858 110.4910714285715Q965.4017857142858 95.9821428571428 958.7053571428572 83.7053571428571T938.6160714285714 71.4285714285715z" />
    <glyph glyph-name="heart"
      unicode="&#xEA35;"
      horiz-adv-x="1000" d="M500 71.4285714285715Q485.4910714285714 71.4285714285715 475.4464285714286 81.4732142857142L127.2321428571429 417.4107142857142Q121.6517857142857 421.875 111.8861607142857 431.9196428571429T80.9151785714286 468.4709821428571T42.96875 522.8794642857142T13.1138392857143 590.4017857142858T0 667.4107142857142Q0 790.1785714285714 70.8705357142857 859.375T266.7410714285715 928.5714285714286Q301.3392857142857 928.5714285714286 337.3325892857143 916.5736607142856T404.296875 884.2075892857142T457.5892857142857 845.9821428571429T500 808.0357142857142Q520.0892857142858 828.125 542.4107142857143 845.9821428571429T595.703125 884.2075892857142T662.6674107142858 916.5736607142856T733.2589285714286 928.5714285714286Q858.2589285714286 928.5714285714286 929.1294642857144 859.375T1000 667.4107142857142Q1000 544.0848214285713 872.2098214285714 416.2946428571429L524.5535714285714 81.4732142857142Q514.5089285714286 71.4285714285715 500 71.4285714285715z" />
    <glyph glyph-name="home"
      unicode="&#xEA36;"
      horiz-adv-x="1000" d="M821.4285714285714 446.4285714285715V178.5714285714286Q821.4285714285714 164.0625 810.8258928571429 153.4598214285715T785.7142857142858 142.8571428571429H571.4285714285714V357.1428571428571H428.5714285714286V142.8571428571429H214.2857142857143Q199.7767857142857 142.8571428571429 189.1741071428572 153.4598214285715T178.5714285714286 178.5714285714286V446.4285714285715Q178.5714285714286 446.9866071428571 178.8504464285715 448.1026785714286T179.1294642857143 449.7767857142857L500 714.2857142857142L820.8705357142858 449.7767857142857Q821.4285714285714 448.6607142857142 821.4285714285714 446.4285714285715zM945.8705357142858 484.9330357142857L911.2723214285714 443.6383928571429Q906.8080357142858 438.6160714285715 899.5535714285714 437.5H897.8794642857143Q890.625 437.5 886.1607142857143 441.40625L500 763.3928571428571L113.8392857142857 441.40625Q107.1428571428571 436.9419642857142 100.4464285714286 437.5Q93.1919642857143 438.6160714285715 88.7276785714286 443.6383928571429L54.1294642857143 484.9330357142857Q49.6651785714286 490.5133928571428 50.2232142857143 498.046875T56.3616071428572 510.0446428571428L457.5892857142857 844.3080357142858Q475.4464285714286 858.8169642857142 500 858.8169642857142T542.4107142857143 844.3080357142858L678.5714285714286 730.46875V839.2857142857142Q678.5714285714286 847.0982142857142 683.59375 852.1205357142858T696.4285714285714 857.1428571428571H803.5714285714286Q811.3839285714286 857.1428571428571 816.40625 852.1205357142858T821.4285714285714 839.2857142857142V611.6071428571429L943.6383928571428 510.0446428571428Q949.21875 505.5803571428571 949.7767857142858 498.046875T945.8705357142858 484.9330357142857z" />
    <glyph glyph-name="image"
      unicode="&#xEA37;"
      horiz-adv-x="1000" d="M950 900H50A50 50 0 0 1 0 850V150A50 50 0 0 1 50 100H950A50 50 0 0 1 1000 150V850A50 50 0 0 1 950 900zM900 200H100V800H900V200zM715.75 456.1500000000001L554.1999999999999 375.9000000000001L365.7 680.95L200 300H800L715.75 456.1500000000001zM662.5 550A62.5 62.5 0 1 1 662.5 675A62.5 62.5 0 0 1 662.5 550z" />
    <glyph glyph-name="inbox"
      unicode="&#xEA38;"
      horiz-adv-x="1000" d="M642.2991071428571 464.2857142857142H818.6383928571429Q818.0803571428571 465.9598214285714 817.2433035714286 469.0290178571429T815.8482142857143 473.2142857142857L697.5446428571429 750H302.4553571428572L184.1517857142857 473.2142857142857Q183.59375 471.5401785714286 182.7566964285715 468.4709821428571T181.3616071428572 464.2857142857142H357.7008928571429L410.7142857142857 357.1428571428571H589.2857142857143zM928.5714285714286 447.5446428571429V178.5714285714286Q928.5714285714286 164.0625 917.96875 153.4598214285715T892.8571428571429 142.8571428571429H107.1428571428571Q92.6339285714286 142.8571428571429 82.03125 153.4598214285715T71.4285714285714 178.5714285714286V447.5446428571429Q71.4285714285714 482.1428571428571 85.3794642857143 516.1830357142858L218.1919642857143 824.21875Q223.7723214285715 838.1696428571429 238.5602678571429 847.65625T267.8571428571429 857.1428571428571H732.1428571428571Q746.6517857142858 857.1428571428571 761.4397321428571 847.65625T781.8080357142858 824.21875L914.6205357142858 516.1830357142858Q928.5714285714286 482.1428571428571 928.5714285714286 447.5446428571429z" />
    <glyph glyph-name="info-circled"
      unicode="&#xEA39;"
      horiz-adv-x="1000" d="M500 980C234.85 980 19.95 765.0999999999999 19.95 500A480 480 0 0 1 500 19.95C765.05 19.95 980.0000000000002 234.85 980.0000000000002 500.0000000000001C980.0000000000002 765.1000000000001 765.0500000000001 980.0000000000002 500.0000000000001 980.0000000000002zM544.8000000000001 806.7C591.6 806.7 605.35 779.55 605.35 748.5C605.35 709.75 574.3500000000001 673.9 521.4000000000001 673.9C477.1000000000001 673.9 456.0000000000001 696.15 457.3000000000001 733C457.3000000000001 764.0500000000001 483.2500000000001 806.7 544.8000000000001 806.7zM424.9 212.5C392.9 212.5 369.55 231.95 391.9 317.2L428.55 468.45C434.9000000000001 492.65 435.95 502.35 428.55 502.35C419 502.35 377.45 485.6500000000001 352.95 469.1500000000001L337 495.3C414.75 560.25 504.1499999999999 598.35 542.4 598.35C574.4 598.35 579.6999999999999 560.55 563.7499999999999 502.35L521.7499999999999 343.35C514.3 315.2500000000001 517.4999999999999 305.5500000000001 524.9499999999999 305.5500000000001C534.55 305.5500000000001 565.9499999999999 317.15 596.85 341.5L614.9499999999999 317.2C539.3 241.5999999999999 456.85 212.5 424.9 212.5z" />
    <glyph glyph-name="instagram"
      unicode="&#xEA3A;"
      horiz-adv-x="1000" d="M642.8571428571429 500Q642.8571428571429 559.1517857142858 601.0044642857143 601.0044642857142T500 642.8571428571429T398.9955357142857 601.0044642857142T357.1428571428572 500T398.9955357142857 398.9955357142857T500 357.1428571428571T601.0044642857143 398.9955357142857T642.8571428571429 500zM719.8660714285714 500Q719.8660714285714 408.4821428571429 655.6919642857143 344.3080357142857T500 280.1339285714286T344.3080357142857 344.3080357142857T280.1339285714286 500T344.3080357142857 655.6919642857142T500 719.8660714285714T655.6919642857143 655.6919642857142T719.8660714285714 500zM780.1339285714286 728.7946428571429Q780.1339285714286 707.5892857142858 765.0669642857143 692.5223214285714T728.7946428571429 677.4553571428571T692.5223214285714 692.5223214285714T677.4553571428571 728.7946428571429T692.5223214285714 765.0669642857142T728.7946428571429 780.1339285714286T765.0669642857143 765.0669642857142T780.1339285714286 728.7946428571429zM500 851.5625Q496.09375 851.5625 457.3102678571429 851.8415178571429T398.4375 851.8415178571429T344.5870535714286 850.1674107142858T287.109375 844.5870535714286T247.2098214285715 834.2633928571429Q219.3080357142857 823.1026785714286 198.1026785714286 801.8973214285714T165.7366071428572 752.7901785714286Q159.5982142857143 736.6071428571429 155.4129464285715 712.890625T149.8325892857143 655.4129464285714T148.1584821428572 601.5625T148.1584821428572 542.6897321428571T148.4375 500T148.1584821428572 457.3102678571429T148.1584821428572 398.4375T149.8325892857143 344.5870535714286T155.4129464285715 287.109375T165.7366071428572 247.2098214285715Q176.8973214285715 219.3080357142857 198.1026785714286 198.1026785714286T247.2098214285715 165.7366071428571Q263.3928571428572 159.5982142857142 287.109375 155.4129464285715T344.5870535714286 149.8325892857142T398.4375 148.1584821428571T457.3102678571429 148.1584821428571T500 148.4375T542.6897321428571 148.1584821428571T601.5625 148.1584821428571T655.4129464285714 149.8325892857142T712.890625 155.4129464285715T752.7901785714286 165.7366071428571Q780.6919642857143 176.8973214285715 801.8973214285714 198.1026785714286T834.2633928571429 247.2098214285715Q840.4017857142858 263.3928571428571 844.5870535714286 287.109375T850.1674107142858 344.5870535714286T851.8415178571429 398.4375T851.8415178571429 457.3102678571429T851.5625 500T851.8415178571429 542.6897321428571T851.8415178571429 601.5625T850.1674107142858 655.4129464285714T844.5870535714286 712.890625T834.2633928571429 752.7901785714286Q823.1026785714286 780.6919642857142 801.8973214285714 801.8973214285714T752.7901785714286 834.2633928571429Q736.6071428571429 840.4017857142858 712.890625 844.5870535714286T655.4129464285714 850.1674107142858T601.5625 851.8415178571429T542.6897321428571 851.8415178571429T500 851.5625zM928.5714285714286 500Q928.5714285714286 372.2098214285715 925.78125 323.1026785714286Q920.2008928571428 207.03125 856.5848214285714 143.4151785714286T676.8973214285714 74.21875Q627.7901785714286 71.4285714285715 500 71.4285714285715T323.1026785714286 74.21875Q207.03125 79.7991071428571 143.4151785714286 143.4151785714286T74.21875 323.1026785714286Q71.4285714285714 372.2098214285715 71.4285714285714 500T74.21875 676.8973214285714Q79.7991071428571 792.96875 143.4151785714286 856.5848214285714T323.1026785714286 925.78125Q372.2098214285715 928.5714285714286 500 928.5714285714286T676.8973214285714 925.78125Q792.96875 920.2008928571428 856.5848214285714 856.5848214285714T925.78125 676.8973214285714Q928.5714285714286 627.7901785714286 928.5714285714286 500z" />
    <glyph glyph-name="integer"
      unicode="&#xEA3B;"
      horiz-adv-x="1000" d="M381.7 174.3L279.7 174.3L313.1 375L202.7 375L202.7 466.4L327.9 466.4L347.8 590.7L240.4 590.7L240.4 683.2L363.3 683.2L397.6 886.7L498.5 886.7L465.2 683.2L541.3 683.2L574.6 886.7L676.5 886.7L642.2 683.2L757.6 683.2L757.6 590.7L626.3 590.7L605.9 466.4L720.3 466.4L720.3 375L591.5 375L558.2 174.3L457.3 174.3L490.6 375L415 375L381.7 174.3zM449.8 590.7L429.4 466.4L505 466.4L525.3 590.7L449.8 590.7z" />
    <glyph glyph-name="ip"
      unicode="&#xEA3C;"
      horiz-adv-x="1000" d="M378.7 316.3L147.5 316.3L147.5 393.5L196.1 405.6L196.1 634.2L138.3 646.3L138.3 723.8L330.4 723.8L330.4 405.6L378.7 393.5L378.7 316.3zM330.4 801.1L192.3 801.1L192.3 903.9L330.4 903.9L330.4 801.1zM640.9 159.7000000000001L409.3 159.7000000000001L409.3 237.2000000000001L460.6 249.3L460.6 634.2L402.4 646.3L402.4 723.8L586.5 723.8L591.1 677.9C602.3 694.9 615.9 708.1 631.7 717.4C647.5 726.7 666.9 731.4 689.9 731.4C722.5 731.4 750.6 722.5 774.1 704.8C797.6 687.1 815.6 662.3 828.3 630.4C840.9 598.6 847.2 561.5 847.2 519.3L847.2 511.4C847.2 470.7 840.9 435.2000000000001 828.3 404.6C815.6 374.1 797.4 350.5 773.7 333.7000000000001C750 316.8 721.4 308.4 688 308.4C667.6 308.4 649.6 312.2000000000001 634.2 319.7000000000001C618.7 327.3 605.4 338.3 594.2 352.9L594.2 249.3L640.9 237.2000000000001L640.9 159.7000000000001zM648.2 409C672.4 409 689.3 418 698.7 435.9C708.1 453.9 712.9 479 712.9 511.4L712.9 519.3C712.9 541.7 710.7 561.1 706.4 577.7C702 594.3 695.1 607.1 685.5 616.3C675.9 625.5 663.2 630.1 647.4 630.1C635.9 630.1 625.5 627.5 616.2 622.5C606.9 617.5 599.6 610 594.2 599.9L594.2 433.8C599.6 425.6 607 419.3 616.4 415.2000000000001C625.8 411 636.4 409 648.2 409z" />
    <glyph glyph-name="italic"
      unicode="&#xEA3D;"
      horiz-adv-x="1000" d="M214.2857142857143 72.5446428571428L223.7723214285715 119.9776785714286Q236.0491071428572 123.8839285714286 258.0915178571429 129.1852678571428T298.2700892857143 139.7879464285715T331.4732142857143 152.9017857142857Q347.0982142857143 172.4330357142857 354.3526785714286 209.2633928571429Q354.9107142857143 213.1696428571429 388.9508928571429 370.5357142857142T452.5669642857143 673.828125T481.5848214285714 839.2857142857142V853.2366071428571Q468.1919642857143 860.4910714285714 451.171875 863.5602678571429T412.3883928571429 868.0245535714286T380.0223214285715 871.09375L390.625 928.5714285714286Q409.0401785714286 927.4553571428572 457.5892857142857 924.9441964285714T541.015625 921.0379464285714T608.2589285714286 919.6428571428572Q635.0446428571429 919.6428571428572 663.2254464285714 921.0379464285714T730.7477678571429 924.9441964285714T785.7142857142858 928.5714285714286Q782.9241071428571 906.8080357142856 775.1116071428571 878.90625Q758.3705357142858 873.3258928571429 718.4709821428571 863.0022321428571T657.9241071428571 844.3080357142858Q653.4598214285714 833.7053571428571 650.1116071428571 820.5915178571429T645.0892857142858 798.2700892857142T640.9040178571429 772.8794642857142T637.2767857142858 749.4419642857142Q622.2098214285714 666.8526785714286 588.4486607142858 515.3459821428571T545.2008928571429 316.9642857142857Q544.0848214285714 311.9419642857142 537.9464285714286 284.5982142857142T526.7857142857143 234.375T517.8571428571429 187.7790178571429T514.5089285714286 155.6919642857142L515.0669642857143 145.6473214285715Q524.5535714285714 143.4151785714286 618.3035714285714 128.3482142857142Q616.6294642857143 103.7946428571428 609.375 73.1026785714286Q603.2366071428571 73.1026785714286 591.2388392857143 72.265625T573.1026785714286 71.4285714285715Q556.9196428571429 71.4285714285715 524.5535714285714 77.0089285714286T476.5625 82.5892857142857Q399.5535714285715 83.7053571428571 361.6071428571429 83.7053571428571Q333.1473214285715 83.7053571428571 281.8080357142857 78.6830357142857T214.2857142857143 72.5446428571428z" />
    <glyph glyph-name="key-inv"
      unicode="&#xEA3E;"
      horiz-adv-x="1000" d="M687.5 1000C515.625 1000 375 859.375 375 687.5C375 668.125 377.3125 650 380.625 631.25L5.625 256.25V6.25H380.625V131.25H505.625V256.25H630.625V381.25L636.25 386.875H698.75C870.625 386.875 1011.25 527.5 1011.25 699.375S886.25 1011.875 698.75 1011.875zM687.5 625C653.125 625 625 653.125 625 687.5S653.125 750 687.5 750S750 721.875 750 687.5S718.75 625 687.5 625z" />
    </font>
</defs>
</svg>
