<?xml version="1.0" standalone="no"?>
<!DOCTYPE svg PUBLIC "-//W3C//DTD SVG 1.1//EN" "http://www.w3.org/Graphics/SVG/1.1/DTD/svg11.dtd">
<svg xmlns="http://www.w3.org/2000/svg">
<defs >
<font id="SourceCodePro" horiz-adv-x="600" ><font-face
    font-family="Source Code Pro"
    units-per-em="1000"
    panose-1="2 11 5 9 3 4 3 2 2 4"
    ascent="984"
    descent="-273"
    alphabetic="0" />
<glyph unicode=" " glyph-name="space" />
<glyph unicode="!" glyph-name="exclam" d="M272 232L262 576L260 670H340L338 576L328 232H272ZM300 -12Q270 -12 249 9T227 66Q227 101 248 121T300 142Q330 142 351 122T373 66Q373 30 352 9T300 -12Z" />
<glyph unicode="&quot;" glyph-name="quotedbl" d="M414 352L389 577L387 687H497L495 577L470 352H414ZM387 352L362 577L360 687H470L468 577L443 352H387Z" />
<glyph unicode="#" glyph-name="numbersign" d="M328 0L353 204H221L196 0H142L167 204H87V261H174L192 409H107V467H199L222 650H275L253 467H385L408 650H461L439 467H519V409H432L414 261H499V204H407L382 0H328ZM360 261L378 409H246L228 261H360Z" />
<glyph unicode="$" glyph-name="dollar" d="M85 113L124 170Q162 143 207 123T310 102Q370 102 400 126T431 189Q431 220 408 240T349 277T273 308T196 343T138 392T114 465Q114 528 158 568T276 616V748H336V617Q391 612 428 591T495 541L451 493Q434 506 419
516T386 534T349 546T304 550Q253 550 224 528T194 467Q194 439 217 421T276 388T353 358T429 322T488 271T512 195Q512 163 500 136T464 88T408 54T336 36V-110H276V35Q220 40 170 62T85 113Z" />
<glyph unicode="%" glyph-name="percent" d="M167 321Q106 321 67 365T28 487Q28 565 67 607T167 650Q228 650 267 608T306 487Q306 409 267 365T167 321ZM167 371Q199 371 222 399T245 487Q245 547 222 574T167 601Q135 601 112 574T89 487Q89 428 112 400T167
371ZM77 32L28 77L211 265L244 235L77 32ZM389 391L356 421L523 624L572 579L389 391ZM434 -12Q373 -12 334 32T295 154Q295 232 334 274T434 317Q495 317 534 275T573 154Q573 76 534 32T434 -12ZM434 38Q466 38 489 66T512 154Q512 214 489 241T434 268Q402 268
379 241T356 154Q356 95 379 67T434 38Z" />
<glyph unicode="&amp;" glyph-name="ampersand" d="M238 -12Q194 -12 158 1T97 39T57 96T42 170Q42 202 52 229T79 278T119 320T165 358Q144 399 133 438T121 513Q121 546 131 574T160 623T205 656T265 668Q326 668 359 632T392 538Q392 506 380 480T347 431T302
387T251 346Q283 295 324 248T411 162Q439 202 459 249T494 354H570Q552 289 526 230T464 119Q524 73 577 56L554 -12Q489 8 417 63Q381 28 338 8T238 -12ZM192 514Q192 487 200 458T222 399Q243 414 261 429T294 461T317 496T325 537Q325 566 312 587T265 609Q230
609 211 582T192 514ZM248 54Q279 54 308 68T363 106Q315 148 273 198T196 302Q164 274 143 244T122 175Q122 148 132 126T159 87T199 63T248 54Z" />
<glyph unicode="&apos;" glyph-name="quotesingle" d="M272 352L247 577L245 687H355L353 577L328 352H272Z" />
<glyph unicode="(" glyph-name="parenleft" d="M433 -176Q329 -95 269 19T208 278Q208 423 268 537T433 732L478 690Q377 605 330 505T282 278Q282 151 329 51T478 -134L433 -176Z" />
<glyph unicode=")" glyph-name="parenright" d="M167 -176L122 -134Q223 -49 270 51T318 278Q318 405 271 505T122 690L167 732Q271 651 331 537T392 278Q392 133 332 19T167 -176Z" />
<glyph unicode="*" glyph-name="asterisk" d="M180 111L138 141L246 306L84 376L100 422L267 367L276 556H324L333 367L500 422L516 376L354 306L462 141L420 111L300 270L180 111Z" />
<glyph unicode="+" glyph-name="plus" d="M267 104V299H85V361H267V556H333V361H515V299H333V104H267Z" />
<glyph unicode="," glyph-name="comma" d="M220 -213L197 -161Q259 -133 290 -94T323 6Q318 4 314 4T304 4Q272 4 249 22T226 79Q226 116 250 135T306 155Q351 155 373 121T396 27Q396 -61 350 -121T220 -213Z" />
<glyph unicode="-" glyph-name="hyphen" d="M85 299V361H515V299H85Z" />
<glyph unicode="." glyph-name="period" d="M300 -12Q266 -12 243 11T219 72Q219 110 242 133T300 157Q334 157 357 134T381 72Q381 34 358 11T300 -12Z" />
<glyph unicode="/" glyph-name="slash" d="M99 -160L427 710H501L173 -160H99Z" />
<glyph unicode="0" glyph-name="zero" d="M300 -12Q193 -12 132 74T71 321Q71 482 132 566T300 650Q407 650 468 566T529 321Q529 161 468 75T300 -12ZM300 54Q367 54 409 119T452 321Q452 390 441 439T410 521T361 569T300 584Q267 584 239 569T191 522T159 440T148
321Q148 184 190 119T300 54ZM300 261Q275 261 257 278T238 328Q238 359 256 376T300 394Q325 394 343 377T362 328Q362 296 344 279T300 261Z" />
<glyph unicode="1" glyph-name="one" d="M97 0V68H281V538H138V591Q195 599 233 610T302 638H363V68H530V0H97Z" />
<glyph unicode="2" glyph-name="two" d="M73 0V49Q154 121 216 179T321 285T386 376T408 458Q408 513 374 548T269 583Q224 583 186 561T116 506L69 553Q112 597 161 623T279 650Q327 650 365 637T431 599T472 539T487 462Q487 417 466 372T405 278T312 177T193
65Q223 67 253 69T312 71H522V0H73Z" />
<glyph unicode="3" glyph-name="three" d="M287 -12Q204 -12 148 15T57 78L99 132Q131 102 175 79T282 56Q315 56 343 64T391 88T423 124T435 173Q435 201 423 224T382 265T310 291T203 300V363Q260 363 299 372T364 397T400 435T412 482Q412 529 377 556T282
583Q237 583 197 565T125 518L81 570Q121 605 172 627T285 650Q330 650 368 639T435 608T480 557T496 488Q496 430 458 393T360 336V332Q392 325 420 312T471 278T505 230T518 170Q518 128 500 94T451 37T377 1T287 -12Z" />
<glyph unicode="4" glyph-name="four" d="M368 0V176H39V231L358 638H446V242H545V176H446V0H368ZM130 242H368V440Q369 466 370 496T373 553H368Q353 530 336 507T303 460L130 242Z" />
<glyph unicode="5" glyph-name="five" d="M286 -12Q243 -12 209 -5T147 15T97 42T56 75L97 129Q113 115 131 102T170 78T218 62T277 56Q311 56 340 66T392 96T426 142T439 202Q439 268 397 305T282 342Q242 342 214 332T152 303L108 331L129 638H490V567H202L185
378Q213 390 239 397T303 404Q349 404 389 392T458 356T505 294T522 204Q522 152 503 112T450 45T375 3T286 -12Z" />
<glyph unicode="6" glyph-name="six" d="M321 -12Q269 -12 225 7T147 64T96 160T77 295Q77 391 99 458T158 568T243 630T344 650Q403 650 446 631T522 582L476 531Q451 554 418 567T349 581Q311 581 276 567T215 521T172 437T154 307Q193 345 240 367T335 390Q379
390 415 378T478 341T519 279T534 193Q534 147 517 110T470 45T403 3T321 -12ZM321 53Q349 53 374 63T417 91T445 135T456 193Q456 259 421 293T320 328Q282 328 239 308T157 242Q166 149 208 101T321 53Z" />
<glyph unicode="7" glyph-name="seven" d="M226 0Q230 91 243 165T281 307T344 437T438 567H70V638H532V587Q469 515 428 449T362 315T326 170T312 0H226Z" />
<glyph unicode="8" glyph-name="eight" d="M302 -12Q248 -12 205 1T131 37T85 93T68 163Q68 196 80 222T111 269T154 305T205 333V337Q165 362 137 398T108 486Q108 523 122 553T163 604T226 638T305 650Q352 650 388 638T450 603T489 549T503 480Q503 435 475
396T406 328V324Q432 311 455 296T495 262T521 218T531 158Q531 122 516 91T471 37T400 1T302 -12ZM352 348Q432 406 432 476Q432 524 399 556T303 589Q249 589 216 561T183 486Q183 457 196 437T232 400T285 372T352 348ZM304 49Q376 49 414 80T452 161Q452 194
437 216T394 255T331 283T252 310Q205 284 174 252T143 171Q143 117 186 83T304 49Z" />
<glyph unicode="9" glyph-name="nine" d="M281 310Q319 310 362 330T444 395Q434 489 393 537T280 585Q251 585 227 575T184 547T156 502T145 445Q145 379 179 345T281 310ZM257 -12Q198 -12 155 7T79 55L125 107Q149 84 182 70T252 56Q290 56 324 70T385 116T428
201T446 330Q407 292 361 270T265 248Q221 248 185 260T122 297T82 359T67 445Q67 491 84 528T130 593T198 635T279 650Q331 650 376 631T454 574T505 478T524 343Q524 247 502 180T442 70T357 8T257 -12Z" />
<glyph unicode=":" glyph-name="colon" d="M300 346Q266 346 243 369T219 430Q219 468 242 491T300 515Q334 515 357 492T381 430Q381 392 358 369T300 346ZM300 -12Q266 -12 243 11T219 72Q219 110 242 133T300 157Q334 157 357 134T381 72Q381 34 358 11T300 -12Z" />
<glyph unicode=";" glyph-name="semicolon" d="M300 346Q266 346 243 369T219 430Q219 468 242 491T300 515Q334 515 357 492T381 430Q381 392 358 369T300 346ZM220 -213L197 -161Q259 -133 290 -94T323 6Q318 4 314 4T304 4Q272 4 249 22T226 79Q226 116 250
135T306 155Q351 155 373 121T396 27Q396 -61 350 -121T220 -213Z" />
<glyph unicode="&lt;" glyph-name="less" d="M493 48L120 301V363L493 616V537L192 334V330L493 127V48Z" />
<glyph unicode="=" glyph-name="equal" d="M85 406V468H515V406H85ZM85 449V511H515V449H85Z" />
<glyph unicode="&gt;" glyph-name="greater" d="M107 48V127L408 330V334L107 537V616L480 363V301L107 48Z" />
<glyph unicode="?" glyph-name="question" d="M242 232Q236 268 245 296T271 347T311 390T352 429T385 470T398 517Q398 559 371 586T288 614Q250 614 218 599T158 556L109 601Q143 636 189 659T293 682Q335 682 369 671T427 640T465 591T479 526Q479 492 466
466T433 418T391 377T350 336T321 289T315 232H242ZM286 -12Q256 -12 235 9T213 66Q213 101 234 121T286 142Q316 142 337 122T359 66Q359 30 338 9T286 -12Z" />
<glyph unicode="@" glyph-name="at" d="M341 -144Q282 -144 229 -119T136 -44T73 80T49 250Q49 346 71 418T134 538T227 610T343 635Q395 635 433 617T496 567T533 492T546 397V100H496L489 158H485Q463 130 428 109T353 88Q326 88 303 97T262 123T234 164T224
219Q224 296 292 335T488 390V404Q488 440 480 472T453 528T407 566T339 580Q294 580 253 559T181 497T131 393T112 247Q112 167 130 105T179 -1T252 -66T343 -89Q388 -89 421 -78T484 -44L512 -89Q473 -116 432 -130T341 -144ZM370 146Q426 146 482 210V336Q378
322 334 295T290 221Q290 186 311 166T370 146Z" />
<glyph unicode="A" glyph-name="A" d="M232 367L201 267H397L366 367Q349 422 333 476T301 588H297Q281 531 265 477T232 367ZM32 0L253 656H347L568 0H480L418 200H180L117 0H32Z" />
<glyph unicode="B" glyph-name="B" d="M99 0V656H285Q335 656 376 647T447 619T493 570T510 496Q510 447 482 408T395 353V349Q467 338 507 299T547 192Q547 144 529 108T479 48T401 12T300 0H99ZM182 380H271Q355 380 391 407T428 489Q428 543 390 564T275 586H182V380ZM182
70H288Q373 70 419 99T465 196Q465 257 420 283T288 310H182V70Z" />
<glyph unicode="C" glyph-name="C" d="M351 -12Q290 -12 238 11T148 77T87 184T65 328Q65 407 87 470T148 577T241 644T359 668Q418 668 463 644T538 588L491 535Q465 562 433 578T359 595Q312 595 274 577T208 524T166 440T151 330Q151 268 166 219T208 134T273
80T359 61Q404 61 439 80T507 134L554 83Q515 38 466 13T351 -12Z" />
<glyph unicode="D" glyph-name="D" d="M87 0V656H249Q398 656 475 572T553 331Q553 174 476 87T253 0H87ZM170 68H243Q356 68 411 137T467 331Q467 456 412 522T243 588H170V68Z" />
<glyph unicode="E" glyph-name="E" d="M114 0V656H520V586H198V380H470V309H198V71H530V0H114Z" />
<glyph unicode="F" glyph-name="F" d="M133 0V656H536V586H217V364H487V294H217V0H133Z" />
<glyph unicode="G" glyph-name="G" d="M337 -12Q275 -12 223 11T133 77T74 184T53 328Q53 407 74 470T134 577T226 644T344 668Q377 668 404 661T453 643T493 617T525 588L478 535Q454 561 423 578T344 595Q298 595 261 577T196 524T155 440T140 330Q140 268 153
219T192 134T256 80T342 61Q377 61 407 71T456 100V271H325V340H533V64Q502 32 452 10T337 -12Z" />
<glyph unicode="H" glyph-name="H" d="M79 0V656H163V381H437V656H521V0H437V309H163V0H79Z" />
<glyph unicode="I" glyph-name="I" d="M95 0V71H258V586H95V656H505V586H342V71H505V0H95Z" />
<glyph unicode="J" glyph-name="J" d="M276 -12Q221 -12 168 14T81 97L133 148Q161 103 198 82T274 61Q345 61 377 98T410 217V587H135V657H493V210Q493 164 482 124T446 53T379 6T276 -12Z" />
<glyph unicode="K" glyph-name="K" d="M98 0V656H182V327H185L461 656H556L348 407L580 0H486L295 344L182 209V0H98Z" />
<glyph unicode="L" glyph-name="L" d="M134 0V656H216V71H541V0H134Z" />
<glyph unicode="M" glyph-name="M" d="M72 0V656H174L266 376L298 270H302L333 376L426 656H528V0H448V328Q448 352 449 383T453 447T458 509T462 560H459L422 432L328 174H268L176 432L138 560H136Q138 539 140 509T145 447T148 384T150 328V0H72Z" />
<glyph unicode="N" glyph-name="N" d="M82 0V656H174L384 244L447 108H449Q447 157 443 210T438 316V656H518V0H426L216 412L153 548H151Q153 497 157 446T162 343V0H82Z" />
<glyph unicode="O" glyph-name="O" d="M300 -12Q244 -12 198 11T119 79T67 186T48 331Q48 410 66 473T118 579T198 645T300 668Q355 668 401 645T481 579T533 473T552 331Q552 250 534 187T482 79T402 12T300 -12ZM300 61Q337 61 368 79T420 133T454 218T466 331Q466
393 454 442T421 525T368 577T300 595Q262 595 232 577T180 525T146 442T134 331Q134 268 146 218T179 133T231 80T300 61Z" />
<glyph unicode="P" glyph-name="P" d="M102 0V656H300Q354 656 399 646T476 614T525 554T543 463Q543 411 526 373T476 310T399 273T300 260H185V0H102ZM185 328H290Q377 328 418 360T459 463Q459 534 417 561T290 589H185V328Z" />
<glyph unicode="Q" glyph-name="Q" d="M300 57Q376 57 420 129T465 331Q465 455 421 526T300 597Q224 597 180 526T135 331Q135 201 179 129T300 57ZM481 -163Q394 -163 339 -119T260 -9Q212 -1 174 26T108 96T65 199T50 331Q50 410 68 473T119 579T198 646T300
669Q356 669 402 646T481 580T532 473T550 331Q550 260 536 202T495 100T431 30T348 -7Q365 -50 402 -71T490 -92Q505 -92 517 -89T539 -82L555 -149Q538 -155 520 -159T481 -163Z" />
<glyph unicode="R" glyph-name="R" d="M100 0V656H304Q354 656 396 647T468 615T516 558T533 472Q533 395 493 349T386 286L553 0H458L300 277H183V0H100ZM183 345H292Q369 345 409 376T450 472Q450 537 410 563T292 589H183V345Z" />
<glyph unicode="S" glyph-name="S" d="M305 -12Q233 -12 173 14T67 85L117 143Q154 106 203 84T309 61Q377 61 414 90T452 165Q452 191 443 209T418 240T381 263T334 284L240 325Q215 335 190 349T145 383T111 430T98 494Q98 531 114 563T158 618T226 655T313
668Q375 668 427 646T515 587L471 533Q439 562 400 578T310 595Q253 595 218 570T183 499Q183 475 193 459T220 430T258 408T300 390L392 350Q422 338 448 323T494 287T525 239T537 175Q537 136 521 102T475 43T402 3T305 -12Z" />
<glyph unicode="T" glyph-name="T" d="M258 0V586H42V656H558V586H342V0H258Z" />
<glyph unicode="U" glyph-name="U" d="M301 -12Q253 -12 212 2T142 47T96 128T79 248V656H163V246Q163 195 173 160T202 103T246 71T301 61Q331 61 356 71T400 102T429 159T440 246V656H521V248Q521 177 505 128T459 48T390 2T301 -12Z" />
<glyph unicode="V" glyph-name="V" d="M252 0L43 656H131L237 302Q254 243 268 193T300 85H304Q313 114 321 140T336 193T351 246T367 302L472 656H557L349 0H252Z" />
<glyph unicode="W" glyph-name="W" d="M110 0L10 657H104L152 245Q154 224 156 207T159 173T162 136T165 93H168Q172 117 176 136T183 172T191 207T200 244L264 488H344L406 244Q411 224 415 207T422 173T429 136T438 93H442Q443 117 444 136T447 172T450 207T454
244L500 657H590L494 0H390L326 264Q318 294 313 323T302 382H299Q294 352 289 323T276 264L212 0H110Z" />
<glyph unicode="X" glyph-name="X" d="M54 0L250 339L67 656H159L251 488Q264 465 276 444T304 393H308Q322 422 332 443T355 488L445 656H533L350 335L546 0H454L355 177Q341 201 328 226T297 282H293Q279 252 266 227T240 177L142 0H54Z" />
<glyph unicode="Y" glyph-name="Y" d="M258 0V234L38 656H126L225 461Q244 423 262 386T300 308H304Q324 348 343 386T381 462L476 656H562L342 234V0H258Z" />
<glyph unicode="Z" glyph-name="Z" d="M65 0V50L431 587H97V657H534V607L167 71H539V0H65Z" />
<glyph unicode="[" glyph-name="bracketleft" d="M225 -152V708H502V661H291V-105H502V-152H225Z" />
<glyph unicode="\" glyph-name="backslash" d="M427 -160L99 710H173L501 -160H427Z" />
<glyph unicode="]" glyph-name="bracketright" d="M98 -152V-105H309V661H98V708H375V-152H98Z" />
<glyph unicode="^" glyph-name="asciicircum" d="M111 284L264 670H336L489 284H417L351 460L302 593H298L249 460L183 284H111Z" />
<glyph unicode="_" glyph-name="underscore" d="M60 -140V-69H540V-140H60Z" />
<glyph unicode="`" glyph-name="grave" d="M321 568L164 721L222 777L364 609L321 568Z" />
<glyph unicode="a" glyph-name="a" d="M246 -12Q212 -12 182 -3T130 24T94 67T81 126Q81 167 100 197T162 250T272 286T433 308Q432 333 425 355T403 393T364 420T304 430Q256 430 212 412T134 372L102 428Q120 440 144 452T196 475T255 491T318 498Q418 498 466
444T515 298V0H448L441 66H438Q397 34 348 11T246 -12ZM268 54Q310 54 350 72T433 126V254Q355 248 303 237T219 211T174 176T161 132Q161 111 170 97T193 73T227 59T268 54Z" />
<glyph unicode="b" glyph-name="b" d="M320 -12Q285 -12 245 5T169 54H166L159 0H93V712H175V518L172 424H175Q208 458 251 478T338 498Q387 498 425 481T488 431T527 353T540 251Q540 189 522 140T474 57T403 6T320 -12ZM307 57Q339 57 366 70T413 108T444 169T455
250Q455 290 447 323T423 379T380 416T318 429Q286 429 250 412T175 356V114Q210 83 245 70T307 57Z" />
<glyph unicode="c" glyph-name="c" d="M346 -12Q289 -12 241 5T156 54T100 134T80 242Q80 303 101 350T160 431T246 481T351 498Q411 498 454 477T528 427L487 374Q457 400 425 415T354 430Q312 430 277 417T218 378T179 319T165 242Q165 200 178 166T216 108T275
70T352 56Q397 56 434 73T502 117L539 64Q498 28 449 8T346 -12Z" />
<glyph unicode="d" glyph-name="d" d="M271 -12Q223 -12 185 5T118 54T75 134T60 242Q60 301 78 348T127 429T198 480T281 498Q325 498 359 482T426 435H429L425 525V712H507V0H439L432 64H429Q399 33 358 11T271 -12ZM288 57Q360 57 425 130V372Q392 403 361
416T297 429Q265 429 238 416T190 378T157 319T145 243Q145 155 182 106T288 57Z" />
<glyph unicode="e" glyph-name="e" d="M330 -12Q275 -12 228 5T145 55T89 135T68 244Q68 303 88 350T143 430T222 480T316 498Q368 498 409 482T479 435T523 363T538 270Q538 256 537 243T534 220H151Q159 137 211 96T340 54Q384 54 419 66T488 100L518 46Q482
22 436 5T330 -12ZM318 433Q288 433 261 423T211 395T174 348T153 284H463Q458 359 420 396T318 433Z" />
<glyph unicode="f" glyph-name="f" d="M242 0V419H103V481L242 486V527Q242 616 289 670T438 724Q510 724 578 696L559 634Q529 648 504 652T446 657Q380 657 352 624T323 530V486H527V419H323V0H242Z" />
<glyph unicode="g" glyph-name="g" d="M296 -224Q189 -224 131 -189T72 -89Q72 -60 92 -32T152 19V23Q132 34 117 53T102 103Q102 126 117 150T160 194V198Q135 217 118 248T100 324Q100 364 115 396T157 450T217 485T291 498Q331 498 363 486H564V419H438Q455
402 467 376T479 321Q479 282 465 251T425 199T365 166T291 154Q272 154 251 158T209 172Q171 148 171 116Q171 87 197 74T272 60H381Q475 60 520 34T566 -54Q566 -88 547 -119T493 -173T408 -210T296 -224ZM291 209Q338 209 370 240T403 324Q403 349 394 370T370
406T335 429T291 438Q268 438 248 430T212 406T188 370T179 324Q179 271 212 240T291 209ZM302 -164Q344 -164 378 -156T436 -135T472 -104T485 -67Q485 -32 458 -20T374 -8H279Q258 -8 240 -7T205 0Q170 -19 157 -39T143 -81Q143 -119 183 -141T302 -164Z" />
<glyph unicode="h" glyph-name="h" d="M93 0V712H175V518L170 403H173Q211 444 254 471T355 498Q442 498 482 449T523 302V0H441V291Q441 360 415 393T329 427Q307 427 289 422T252 405T215 378T175 339V0H93Z" />
<glyph unicode="i" glyph-name="i" d="M316 0V419H90V486H398V0H316ZM348 588Q320 588 301 605T282 652Q282 681 301 698T348 716Q376 716 395 699T414 652Q414 623 395 606T348 588Z" />
<glyph unicode="j" glyph-name="j" d="M194 -217Q156 -217 120 -208T55 -184L82 -123Q108 -136 136 -143T193 -150Q229 -150 253 -141T291 -115T310 -74T316 -18V419H90V486H398V-12Q398 -57 388 -94T355 -159T292 -202T194 -217ZM348 588Q320 588 301 605T282
652Q282 681 301 698T348 716Q376 716 395 699T414 652Q414 623 395 606T348 588Z" />
<glyph unicode="k" glyph-name="k" d="M106 0V712H188V230H192L454 486H548L354 295L574 0H482L303 245L188 132V0H106Z" />
<glyph unicode="l" glyph-name="l" d="M407 -12Q329 -12 288 32T247 163V645H74V712H329V157Q329 103 355 80T425 56Q468 56 516 78L537 17Q503 3 475 -4T407 -12Z" />
<glyph unicode="m" glyph-name="m" d="M58 0V486H124L131 422H133Q152 456 177 477T244 498Q315 498 336 414Q357 453 382 475T450 498Q501 498 529 460T558 348V0H476V342Q476 427 424 427Q398 427 382 409T346 352V0H270V342Q270 384 259 405T220 427Q194 427
176 409T140 352V0H58Z" />
<glyph unicode="n" glyph-name="n" d="M93 0V486H161L168 403H172Q210 444 254 471T355 498Q442 498 482 449T523 302V0H441V291Q441 360 415 393T329 427Q307 427 289 422T252 405T215 378T175 339V0H93Z" />
<glyph unicode="o" glyph-name="o" d="M300 -12Q252 -12 209 5T132 54T80 134T60 242Q60 303 79 350T132 431T208 481T300 498Q348 498 391 481T468 431T520 351T540 242Q540 182 521 135T468 55T392 5T300 -12ZM300 56Q335 56 363 69T412 107T444 166T455 242Q455
284 444 318T413 378T364 416T300 430Q265 430 237 417T188 378T156 319T145 242Q145 200 156 166T187 108T236 70T300 56Z" />
<glyph unicode="p" glyph-name="p" d="M93 -205V486H161L168 424H171Q205 456 249 477T339 498Q388 498 425 481T488 431T527 353T540 250Q540 188 522 140T474 57T403 6T319 -12Q285 -12 246 4T174 51H171L175 -41V-205H93ZM305 57Q371 57 413 108T455 250Q455
290 447 323T423 379T380 416T318 429Q286 429 250 412T175 356V114Q210 83 245 70T305 57Z" />
<glyph unicode="q" glyph-name="q" d="M425 -205V-28L429 62H426Q396 31 356 10T270 -12Q223 -12 184 5T118 54T75 134T60 242Q60 301 78 348T127 429T198 480T281 498Q326 498 361 481T431 432H434L441 486H507V-205H425ZM288 57Q360 57 425 130V372Q392 403
361 416T297 429Q265 429 238 416T190 378T157 319T145 243Q145 155 182 106T288 57Z" />
<glyph unicode="r" glyph-name="r" d="M146 0V486H214L221 371H224Q262 430 317 464T441 498Q468 498 491 494T537 478L518 407Q492 416 475 420T428 424Q373 424 323 393T228 285V0H146Z" />
<glyph unicode="s" glyph-name="s" d="M310 -12Q238 -12 177 10T71 64L109 118Q151 88 201 70T320 52Q382 52 412 74T443 128Q443 142 438 154T417 177T370 198T291 218Q196 238 149 271T101 360Q101 389 114 414T152 458T215 487T303 498Q359 498 411 480T499
436L459 383Q425 406 384 420T296 434Q234 434 209 413T184 364Q184 332 217 316T325 283Q386 270 425 256T486 223T517 183T526 133Q526 103 512 77T471 31T403 0T310 -12Z" />
<glyph unicode="t" glyph-name="t" d="M394 -12Q341 -12 305 2T247 43T216 107T206 189V419H69V481L209 486L220 642H288V486H527V419H288V188Q288 155 294 131T314 89T352 64T411 55Q446 55 474 61T528 77L546 17Q513 5 477 -3T394 -12Z" />
<glyph unicode="u" glyph-name="u" d="M246 -12Q158 -12 118 37T77 184V486H160V195Q160 126 185 93T272 59Q314 59 348 80T423 149V486H505V0H438L431 85H427Q390 42 347 15T246 -12Z" />
<glyph unicode="v" glyph-name="v" d="M256 0L51 486H134L246 210Q261 173 274 138T301 67H305Q318 102 330 137T358 210L470 486H549L348 0H256Z" />
<glyph unicode="w" glyph-name="w" d="M114 0L8 486H90L148 204Q155 169 160 137T170 70H174Q179 105 186 137T202 204L262 456H344L402 204Q410 169 418 137T432 70H436Q442 105 446 137T458 204L516 486H592L488 0H382L326 232Q314 283 302 376H298Q286 283
274 232L220 0H114Z" />
<glyph unicode="x" glyph-name="x" d="M64 0L249 252L78 486H169L246 379Q259 359 273 338T303 297H307Q321 317 335 339T362 381L435 486H522L349 245L535 0H445L360 112Q345 133 329 156T296 200H292Q277 178 262 157T232 112L152 0H64Z" />
<glyph unicode="y" glyph-name="y" d="M131 -209Q95 -209 67 -199L84 -134Q94 -137 105 -139T128 -141Q179 -141 211 -112T261 -37L276 -1L49 486H132L251 217Q265 185 280 148T311 76H315Q328 111 341 147T367 217L473 486H551L337 -40Q323 -76 305 -107T262
-160T205 -196T131 -209Z" />
<glyph unicode="z" glyph-name="z" d="M71 0V44L404 419H108V486H522V442L188 67H531V0H71Z" />
<glyph unicode="{" glyph-name="braceleft" d="M441 -152Q394 -152 359 -146T301 -124T267 -84T256 -19Q256 8 257 32T260 80T263 126T265 174Q265 189 259 202T237 227T193 245T120 252V304Q164 304 192 311T237 329T259 353T265 382Q265 430 261 476T256 575Q256
614 267 639T301 680T359 701T441 708H502V661H450Q412 661 388 656T350 640T331 612T326 570Q326 527 329 482T332 389Q332 340 313 315T241 280V276Q293 267 312 242T332 167Q332 116 329 74T326 -14Q326 -38 331 -55T349 -84T387 -100T450 -105H502V-152H441Z"
/>
<glyph unicode="|" glyph-name="bar" d="M263 -250V750H337V-250H263Z" />
<glyph unicode="}" glyph-name="braceright" d="M99 -152V-105H150Q188 -105 212 -100T251 -84T270 -56T275 -14Q275 32 272 74T269 167Q269 216 288 241T359 276V280Q307 289 288 314T269 389Q269 436 272 481T275 570Q275 594 270 611T251 640T213 656T150 661H99V708H160Q207
708 241 702T299 680T333 640T344 575Q344 523 340 477T335 382Q335 367 341 354T363 329T407 311T480 304V252Q436 252 408 245T363 227T341 203T335 174Q335 149 336 126T339 80T342 33T344 -19Q344 -58 333 -83T299 -124T242 -145T160 -152H99Z" />
<glyph unicode="~" glyph-name="asciitilde" d="M388 257Q358 257 335 270T291 299T251 328T210 341Q187 341 167 324T129 255L76 278Q102 348 138 375T212 403Q242 403 265 390T309 361T349 332T390 319Q402 319 412 322T433 335T453 362T471 405L524 381Q498
311 462 284T388 257Z" />
<glyph unicode="&#xa0;" glyph-name="uni00A0" />
<glyph unicode="&#xa1;" glyph-name="exclamdown" d="M260 -184L262 -90L272 254H328L338 -90L340 -184H260ZM300 344Q270 344 249 364T227 421Q227 456 248 477T300 498Q330 498 351 477T373 421Q373 385 352 365T300 344Z" />
<glyph unicode="&#xa2;" glyph-name="cent" d="M194 310Q194 243 225 199T314 142V477Q258 464 226 420T194 310ZM314 -33V71Q269 76 232 94T169 142T128 215T113 310Q113 362 128 403T171 475T235 523T314 547V653H365V550Q409 548 441 531T496 492L456 440Q436
458 414 469T365 482V138Q397 140 423 153T470 185L506 133Q476 107 440 90T365 70V-33H314Z" />
<glyph unicode="&#xa3;" glyph-name="sterling" d="M78 0V50Q141 78 171 125T202 230Q202 256 194 285H77V337L176 341Q165 373 155 403T144 466Q144 508 159 542T201 600T267 637T354 650Q416 650 458 629T530 575L482 528Q459 551 430 566T358 581Q292 581 258
549T223 464Q223 432 232 403T253 341H442V285H269Q275 258 275 229Q275 176 257 141T203 75V71H531V0H78Z" />
<glyph unicode="&#xa4;" glyph-name="currency" d="M102 83L58 128L142 213Q125 236 116 265T106 329Q106 364 115 393T141 446L58 532L102 577L189 487Q237 524 300 524Q362 524 411 487L498 577L542 532L458 446Q475 423 484 394T494 329Q494 294 485 265T458
213L542 128L498 83L410 172Q387 153 359 144T300 134Q238 134 189 172L102 83ZM300 195Q324 195 345 204T383 232T408 274T418 329Q418 359 409 383T383 426T346 453T300 463Q276 463 255 454T217 426T192 384T182 329Q182 299 191 275T217 232T254 205T300 195Z"
/>
<glyph unicode="&#xa5;" glyph-name="yen" d="M258 0V158H77V206H258V271H77V318H238L53 638H138L230 467Q247 434 263 401T299 332H303Q321 367 338 400T373 467L465 638H547L361 318H523V271H340V206H523V158H340V0H258Z" />
<glyph unicode="&#xa6;" glyph-name="brokenbar" d="M263 -250V190H337V-250H263ZM263 310V750H337V310H263Z" />
<glyph unicode="&#xa7;" glyph-name="section" d="M287 -64Q232 -64 186 -45T108 7L158 52Q184 28 214 14T287 0Q328 0 350 20T373 69Q373 97 352 116T300 150T232 179T164 215T112 266T91 343Q91 388 116 420T182 473Q168 489 160 508T151 554Q151 580 160 603T189
645T236 673T302 684Q352 684 392 667T463 627L423 574Q397 594 369 607T306 620Q264 620 245 602T226 557Q226 530 247 512T299 479T367 449T435 413T488 361T509 284Q509 236 485 206T418 154Q432 138 440 119T448 73Q448 43 436 18T403 -25T353 -53T287 -64ZM162
348Q162 315 182 294T234 256T302 225T371 192Q403 206 420 225T438 278Q438 312 418 334T366 372T299 403T230 436Q199 420 181 400T162 348Z" />
<glyph unicode="&#xa8;" glyph-name="dieresis" d="M203 588Q179 588 164 604T148 644Q148 667 163 683T203 700Q227 700 242 684T258 644Q258 620 243 604T203 588ZM397 588Q373 588 358 604T342 644Q342 667 357 683T397 700Q421 700 436 684T452 644Q452 620
437 604T397 588Z" />
<glyph unicode="&#xa9;" glyph-name="copyright" d="M300 -11Q243 -11 194 12T108 79T51 184T30 323Q30 399 50 460T107 564T193 630T300 653Q357 653 406 630T492 565T549 461T570 323Q570 246 550 185T493 80T407 13T300 -11ZM300 31Q350 31 391 52T462 111T508
203T524 323Q524 389 508 442T463 533T392 591T300 612Q250 612 209 592T138 533T92 442T76 323Q76 257 92 204T137 112T208 52T300 31ZM308 125Q274 125 245 138T193 177T159 239T146 323Q146 366 159 401T196 461T248 499T311 512Q346 512 370 499T415 465L381
426Q365 440 350 448T314 457Q268 457 240 420T212 323Q212 257 238 219T310 180Q336 180 355 190T391 214L421 172Q398 152 372 139T308 125Z" />
<glyph unicode="&#xaa;" glyph-name="ordfeminine" d="M269 387Q224 387 194 411T163 479Q163 532 216 560T382 598Q380 629 364 651T307 673Q278 673 251 663T201 639L176 682Q202 698 239 711T318 724Q383 724 414 689T446 590V395H393L389 433H387Q362 413
332 400T269 387ZM285 436Q311 436 334 446T382 476V559Q296 551 261 533T225 485Q225 459 243 448T285 436Z" />
<glyph unicode="&#xab;" glyph-name="guillemotleft" d="M492 52L339 212V292L492 452L531 417L404 252L531 86L492 52ZM465 52L312 212V292L465 452L504 417L377 252L504 86L465 52Z" />
<glyph unicode="&#xac;" glyph-name="logicalnot" d="M449 104V299H85V361H515V104H449Z" />
<glyph unicode="&#xad;" glyph-name="uni00AD" d="M85 299V361H515V299H85Z" />
<glyph unicode="&#xae;" glyph-name="registered" d="M300 319Q261 319 227 333T167 374T127 436T112 516Q112 560 126 596T166 658T226 698T300 713Q339 713 373 699T432 658T473 596T488 516Q488 472 473 436T433 374T373 334T300 319ZM300 356Q331 356 358
367T405 400T436 450T448 516Q448 551 437 580T406 631T359 665T300 677Q268 677 241 665T194 632T163 581T151 516Q151 480 162 451T194 400T241 368T300 356ZM227 417V620H303Q335 620 358 606T382 555Q382 537 372 522T344 500L390 417H344L309 487H268V417H227ZM268
519H294Q314 519 326 527T338 553Q338 568 329 577T296 586H268V519Z" />
<glyph unicode="&#xaf;" glyph-name="overscore" d="M167 601V658H433V601H167Z" />
<glyph unicode="&#xb0;" glyph-name="degree" d="M300 429Q275 429 253 438T213 463T185 503T175 556Q175 586 185 609T212 650T252 676T300 685Q325 685 348 676T388 650T415 610T426 556Q426 527 416 504T388 464T348 438T300 429ZM300 475Q334 475 355 498T376
556Q376 593 355 616T300 639Q267 639 246 616T225 556Q225 521 246 498T300 475Z" />
<glyph unicode="&#xb1;" glyph-name="plusminus" d="M267 127V304H85V366H267V556H333V366H515V304H333V127H267ZM85 0V62H515V0H85Z" />
<glyph unicode="&#xb2;" glyph-name="two.sups" d="M162 395L158 432Q208 475 246 507T311 567T350 616T363 661Q363 699 340 721T278 743Q250 743 226 727T184 686L146 721Q169 756 206 776T287 797Q350 797 388 765T427 670Q427 642 415 617T380 565T328 511T262
449H446V395H162Z" />
<glyph unicode="&#xb3;" glyph-name="three.sups" d="M297 383Q246 383 206 404T142 459L184 492Q203 463 231 449T293 434Q329 434 355 452T381 503Q381 573 250 573V613Q310 613 338 633T366 684Q366 712 345 729T286 746Q261 746 237 733T196 698L158 732Q184
763 217 780T295 797Q322 797 346 790T389 769T419 736T430 692Q430 657 411 634T351 596Q394 588 419 563T445 500Q445 473 434 452T402 415T354 391T297 383Z" />
<glyph unicode="&#xb4;" glyph-name="acute" d="M279 568L236 609L378 777L436 721L279 568Z" />
<glyph unicode="&#xb5;" glyph-name="uni00B5" d="M84 -187V486H166V195Q166 128 190 94T269 59Q288 59 306 63T342 78T379 110T417 164V486H500Q498 387 496 284T494 92Q494 72 502 64T522 56Q526 56 529 56T540 58L551 -4Q533 -12 504 -12Q466 -12 447 10T424
92H422Q392 40 353 15T268 -10Q235 -10 208 0T160 43Q160 5 160 -24T161 -80T163 -131T167 -187H84Z" />
<glyph unicode="&#xb6;" glyph-name="paragraph" d="M318 226Q265 226 220 238T142 277T91 345T72 443Q72 502 90 542T139 608T214 645T307 656H350V226H318ZM404 -80V656H485V-80H404Z" />
<glyph unicode="&#xb7;" glyph-name="middot" d="M300 263Q266 263 243 286T219 347Q219 385 242 408T300 432Q334 432 357 409T381 347Q381 309 358 286T300 263Z" />
<glyph unicode="&#xb8;" glyph-name="cedilla" d="M213 -226L205 -186Q268 -181 291 -170T314 -136Q314 -116 297 -105T237 -88L277 8H331L305 -64Q340 -72 359 -88T378 -135Q378 -179 336 -200T213 -226Z" />
<glyph unicode="&#xb9;" glyph-name="one.sups" d="M175 395V449H298V703H193V744Q234 750 260 759T310 785H362V449H476V395H175Z" />
<glyph unicode="&#xba;" glyph-name="ordmasculine" d="M300 387Q268 387 240 398T190 431T155 484T142 555Q142 595 155 626T189 680T239 713T300 724Q332 724 360 713T411 680T445 627T458 555Q458 515 446 484T411 432T361 399T300 387ZM300 439Q343 439 367
471T392 555Q392 608 368 640T300 672Q257 672 233 640T208 555Q208 503 232 471T300 439Z" />
<glyph unicode="&#xbb;" glyph-name="guillemotright" d="M392 52L353 86L480 252L353 417L392 452L545 292V212L392 52ZM365 52L326 86L453 252L326 417L365 452L518 292V212L365 52Z" />
<glyph unicode="&#xbc;" glyph-name="onequarter" d="M150 333V563H68V605Q101 610 121 618T163 638H213V333H150ZM77 32L28 77L211 265L244 235L77 32ZM389 391L356 421L523 624L572 579L389 391ZM468 0V74H306V105L419 317L465 297L368 116H468V213H525V116H575V74H525V0H468Z"
/>
<glyph unicode="&#xbd;" glyph-name="onehalf" d="M150 333V563H68V605Q101 610 121 618T163 638H213V333H150ZM77 32L28 77L211 265L244 235L77 32ZM389 391L356 421L523 624L572 579L389 391ZM324 0V36Q402 95 443 134T485 206Q485 233 470 249T425 265Q405
265 386 254T353 223L314 256Q337 282 366 299T432 317Q486 317 517 291T548 214Q548 194 539 175T513 136T474 96T427 53H563V0H324Z" />
<glyph unicode="&#xbe;" glyph-name="threequarters" d="M159 321Q124 321 91 335T32 375L64 414Q79 396 103 384T155 371Q182 371 199 382T217 418Q217 469 121 469V507Q163 507 182 521T202 558Q202 578 189 589T147 601Q129 601 109 592T74 567L44 605Q63 625
93 637T159 650Q206 650 235 628T265 566Q265 511 209 491Q241 483 260 464T280 414Q280 369 245 345T159 321ZM102 32L53 77L236 265L269 235L102 32ZM414 391L381 421L548 624L597 579L414 391ZM468 0V74H306V105L419 317L465 297L368 116H468V213H525V116H575V74H525V0H468Z"
/>
<glyph unicode="&#xbf;" glyph-name="questiondown" d="M307 -196Q265 -196 231 -185T173 -154T135 -105T121 -40Q121 -6 134 20T167 68T209 109T250 150T279 196T285 254H358Q364 218 355 190T329 139T289 96T248 57T215 16T202 -31Q202 -73 229 -100T312 -127Q350
-127 382 -112T442 -70L491 -115Q457 -150 411 -173T307 -196ZM314 344Q284 344 263 364T241 421Q241 456 262 477T314 498Q344 498 365 477T387 421Q387 385 366 365T314 344Z" />
<glyph unicode="&#xc0;" glyph-name="Agrave" d="M232 367L201 267H397L366 367Q349 422 333 476T301 588H297Q281 531 265 477T232 367ZM32 0L253 656H347L568 0H480L418 200H180L117 0H32ZM329 697L177 812L224 867L365 739L329 697Z" />
<glyph unicode="&#xc1;" glyph-name="Aacute" d="M232 367L201 267H397L366 367Q349 422 333 476T301 588H297Q281 531 265 477T232 367ZM32 0L253 656H347L568 0H480L418 200H180L117 0H32ZM271 697L235 739L376 867L423 812L271 697Z" />
<glyph unicode="&#xc2;" glyph-name="Acircumflex" d="M232 367L201 267H397L366 367Q349 422 333 476T301 588H297Q281 531 265 477T232 367ZM32 0L253 656H347L568 0H480L418 200H180L117 0H32ZM188 699L152 725L257 838H343L448 725L412 699L302 792H298L188 699Z" />
<glyph unicode="&#xc3;" glyph-name="Atilde" d="M232 367L201 267H397L366 367Q349 422 333 476T301 588H297Q281 531 265 477T232 367ZM32 0L253 656H347L568 0H480L418 200H180L117 0H32ZM375 709Q347 709 327 720T291 744T260 769T227 780Q208 780 195 763T179
714L123 718Q126 775 153 808T225 841Q253 841 273 830T309 806T340 781T373 770Q413 770 421 836L477 832Q474 774 447 742T375 709Z" />
<glyph unicode="&#xc4;" glyph-name="Adieresis" d="M232 367L201 267H397L366 367Q349 422 333 476T301 588H297Q281 531 265 477T232 367ZM32 0L253 656H347L568 0H480L418 200H180L117 0H32ZM209 715Q187 715 173 729T158 766Q158 789 172 802T209 816Q231
816 245 803T259 766Q259 743 245 729T209 715ZM391 715Q369 715 355 729T341 766Q341 789 355 802T391 816Q413 816 427 803T442 766Q442 743 428 729T391 715Z" />
<glyph unicode="&#xc5;" glyph-name="Aring" d="M232 367L201 267H397L366 367Q349 422 333 476T301 588H297Q281 531 265 477T232 367ZM32 0L253 656H347L568 0H480L418 200H180L117 0H32ZM300 699Q258 699 231 723T203 789Q203 831 230 855T300 880Q342 880
369 856T397 789Q397 748 370 724T300 699ZM300 735Q320 735 335 749T351 789Q351 815 336 829T300 843Q278 843 263 829T248 789Q248 763 263 749T300 735Z" />
<glyph unicode="&#xc6;" glyph-name="AE" d="M231 377L185 258H317V590H314Q294 536 273 484T231 377ZM-1 0L263 656H582V586H393V381H540V310H393V71H591V0H317V191H159L86 0H-1Z" />
<glyph unicode="&#xc7;" glyph-name="Ccedilla" d="M351 -12Q290 -12 238 11T148 77T87 184T65 328Q65 407 87 470T148 577T241 644T359 668Q418 668 463 644T538 588L491 535Q465 562 433 578T359 595Q312 595 274 577T208 524T166 440T151 330Q151 268 166 219T208
134T273 80T359 61Q404 61 439 80T507 134L554 83Q515 38 466 13T351 -12ZM263 -226L255 -186Q318 -181 341 -170T364 -136Q364 -116 347 -105T287 -88L327 8H381L355 -64Q390 -72 409 -88T428 -135Q428 -179 386 -200T263 -226Z" />
<glyph unicode="&#xc8;" glyph-name="Egrave" d="M114 0V656H520V586H198V380H470V309H198V71H530V0H114ZM360 697L208 812L255 867L396 739L360 697Z" />
<glyph unicode="&#xc9;" glyph-name="Eacute" d="M114 0V656H520V586H198V380H470V309H198V71H530V0H114ZM302 697L266 739L407 867L454 812L302 697Z" />
<glyph unicode="&#xca;" glyph-name="Ecircumflex" d="M114 0V656H520V586H198V380H470V309H198V71H530V0H114ZM219 699L183 725L288 838H374L479 725L443 699L333 792H329L219 699Z" />
<glyph unicode="&#xcb;" glyph-name="Edieresis" d="M114 0V656H520V586H198V380H470V309H198V71H530V0H114ZM240 715Q218 715 204 729T189 766Q189 789 203 802T240 816Q262 816 276 803T290 766Q290 743 276 729T240 715ZM422 715Q400 715 386 729T372 766Q372
789 386 802T422 816Q444 816 458 803T473 766Q473 743 459 729T422 715Z" />
<glyph unicode="&#xcc;" glyph-name="Igrave" d="M95 0V71H258V586H95V656H505V586H342V71H505V0H95ZM329 697L177 812L224 867L365 739L329 697Z" />
<glyph unicode="&#xcd;" glyph-name="Iacute" d="M95 0V71H258V586H95V656H505V586H342V71H505V0H95ZM271 697L235 739L376 867L423 812L271 697Z" />
<glyph unicode="&#xce;" glyph-name="Icircumflex" d="M95 0V71H258V586H95V656H505V586H342V71H505V0H95ZM188 699L152 725L257 838H343L448 725L412 699L302 792H298L188 699Z" />
<glyph unicode="&#xcf;" glyph-name="Idieresis" d="M95 0V71H258V586H95V656H505V586H342V71H505V0H95ZM209 715Q187 715 173 729T158 766Q158 789 172 802T209 816Q231 816 245 803T259 766Q259 743 245 729T209 715ZM391 715Q369 715 355 729T341 766Q341 789
355 802T391 816Q413 816 427 803T442 766Q442 743 428 729T391 715Z" />
<glyph unicode="&#xd0;" glyph-name="Eth" d="M87 0V314H12V370L87 376V656H249Q398 656 475 572T553 331Q553 174 476 87T253 0H87ZM170 68H243Q355 68 410 137T466 331Q466 456 411 522T243 588H170V376H314V314H170V68Z" />
<glyph unicode="&#xd1;" glyph-name="Ntilde" d="M82 0V656H174L384 244L447 108H449Q447 157 443 210T438 316V656H518V0H426L216 412L153 548H151Q153 497 157 446T162 343V0H82ZM385 709Q357 709 337 720T301 744T270 769T237 780Q218 780 205 763T189 714L133
718Q136 775 163 808T235 841Q263 841 283 830T319 806T350 781T383 770Q423 770 431 836L487 832Q484 774 457 742T385 709Z" />
<glyph unicode="&#xd2;" glyph-name="Ograve" d="M300 -12Q244 -12 198 11T119 79T67 186T48 331Q48 410 66 473T118 579T198 645T300 668Q355 668 401 645T481 579T533 473T552 331Q552 250 534 187T482 79T402 12T300 -12ZM300 61Q337 61 368 79T420 133T454
218T466 331Q466 393 454 442T421 525T368 577T300 595Q262 595 232 577T180 525T146 442T134 331Q134 268 146 218T179 133T231 80T300 61ZM329 697L177 812L224 867L365 739L329 697Z" />
<glyph unicode="&#xd3;" glyph-name="Oacute" d="M300 -12Q244 -12 198 11T119 79T67 186T48 331Q48 410 66 473T118 579T198 645T300 668Q355 668 401 645T481 579T533 473T552 331Q552 250 534 187T482 79T402 12T300 -12ZM300 61Q337 61 368 79T420 133T454
218T466 331Q466 393 454 442T421 525T368 577T300 595Q262 595 232 577T180 525T146 442T134 331Q134 268 146 218T179 133T231 80T300 61ZM271 697L235 739L376 867L423 812L271 697Z" />
<glyph unicode="&#xd4;" glyph-name="Ocircumflex" d="M300 -12Q244 -12 198 11T119 79T67 186T48 331Q48 410 66 473T118 579T198 645T300 668Q355 668 401 645T481 579T533 473T552 331Q552 250 534 187T482 79T402 12T300 -12ZM300 61Q337 61 368 79T420 133T454
218T466 331Q466 393 454 442T421 525T368 577T300 595Q262 595 232 577T180 525T146 442T134 331Q134 268 146 218T179 133T231 80T300 61ZM188 699L152 725L257 838H343L448 725L412 699L302 792H298L188 699Z" />
<glyph unicode="&#xd5;" glyph-name="Otilde" d="M300 -12Q244 -12 198 11T119 79T67 186T48 331Q48 410 66 473T118 579T198 645T300 668Q355 668 401 645T481 579T533 473T552 331Q552 250 534 187T482 79T402 12T300 -12ZM300 61Q337 61 368 79T420 133T454
218T466 331Q466 393 454 442T421 525T368 577T300 595Q262 595 232 577T180 525T146 442T134 331Q134 268 146 218T179 133T231 80T300 61ZM375 709Q347 709 327 720T291 744T260 769T227 780Q208 780 195 763T179 714L123 718Q126 775 153 808T225 841Q253 841
273 830T309 806T340 781T373 770Q413 770 421 836L477 832Q474 774 447 742T375 709Z" />
<glyph unicode="&#xd6;" glyph-name="Odieresis" d="M300 -12Q244 -12 198 11T119 79T67 186T48 331Q48 410 66 473T118 579T198 645T300 668Q355 668 401 645T481 579T533 473T552 331Q552 250 534 187T482 79T402 12T300 -12ZM300 61Q337 61 368 79T420 133T454
218T466 331Q466 393 454 442T421 525T368 577T300 595Q262 595 232 577T180 525T146 442T134 331Q134 268 146 218T179 133T231 80T300 61ZM209 715Q187 715 173 729T158 766Q158 789 172 802T209 816Q231 816 245 803T259 766Q259 743 245 729T209 715ZM391 715Q369
715 355 729T341 766Q341 789 355 802T391 816Q413 816 427 803T442 766Q442 743 428 729T391 715Z" />
<glyph unicode="&#xd7;" glyph-name="multiply" d="M146 126L102 171L256 330L102 488L146 533L300 374L454 533L498 488L344 330L498 171L454 126L300 286L146 126Z" />
<glyph unicode="&#xd8;" glyph-name="Oslash" d="M300 -12Q211 -12 146 48L92 -32L36 4L103 102Q77 145 63 202T48 331Q48 410 66 473T118 579T198 645T300 668Q387 668 452 611L504 688L560 652L496 558Q523 516 537 459T552 331Q552 250 534 187T482 79T402
12T300 -12ZM134 331Q134 244 157 181L406 545Q362 595 300 595Q262 595 232 577T180 525T146 442T134 331ZM300 61Q337 61 368 79T420 133T454 218T466 331Q466 420 442 480L192 115Q235 61 300 61Z" />
<glyph unicode="&#xd9;" glyph-name="Ugrave" d="M301 -12Q253 -12 212 2T142 47T96 128T79 248V656H163V246Q163 195 173 160T202 103T246 71T301 61Q331 61 356 71T400 102T429 159T440 246V656H521V248Q521 177 505 128T459 48T390 2T301 -12ZM329 697L177
812L224 867L365 739L329 697Z" />
<glyph unicode="&#xda;" glyph-name="Uacute" d="M301 -12Q253 -12 212 2T142 47T96 128T79 248V656H163V246Q163 195 173 160T202 103T246 71T301 61Q331 61 356 71T400 102T429 159T440 246V656H521V248Q521 177 505 128T459 48T390 2T301 -12ZM271 697L235
739L376 867L423 812L271 697Z" />
<glyph unicode="&#xdb;" glyph-name="Ucircumflex" d="M301 -12Q253 -12 212 2T142 47T96 128T79 248V656H163V246Q163 195 173 160T202 103T246 71T301 61Q331 61 356 71T400 102T429 159T440 246V656H521V248Q521 177 505 128T459 48T390 2T301 -12ZM188 699L152
725L257 838H343L448 725L412 699L302 792H298L188 699Z" />
<glyph unicode="&#xdc;" glyph-name="Udieresis" d="M301 -12Q253 -12 212 2T142 47T96 128T79 248V656H163V246Q163 195 173 160T202 103T246 71T301 61Q331 61 356 71T400 102T429 159T440 246V656H521V248Q521 177 505 128T459 48T390 2T301 -12ZM209 715Q187
715 173 729T158 766Q158 789 172 802T209 816Q231 816 245 803T259 766Q259 743 245 729T209 715ZM391 715Q369 715 355 729T341 766Q341 789 355 802T391 816Q413 816 427 803T442 766Q442 743 428 729T391 715Z" />
<glyph unicode="&#xdd;" glyph-name="Yacute" d="M258 0V234L38 656H126L225 461Q244 423 262 386T300 308H304Q324 348 343 386T381 462L476 656H562L342 234V0H258ZM271 697L235 739L376 867L423 812L271 697Z" />
<glyph unicode="&#xde;" glyph-name="Thorn" d="M101 0V656H185V546H303Q357 546 402 536T478 503T527 444T545 353Q545 301 528 263T478 199T402 162T303 150H185V0H101ZM185 218H292Q379 218 420 250T462 353Q462 424 420 451T292 478H185V218Z" />
<glyph unicode="&#xdf;" glyph-name="germandbls" d="M401 -12Q359 -12 324 0T257 33L290 91Q318 71 344 62T399 52Q441 52 463 75T486 130Q486 159 471 178T434 211T385 238T337 267T299 306T284 364Q284 398 298 422T329 469T360 515T374 571Q374 608 352 632T288
657Q233 657 202 620T170 507V0H88V519Q88 565 102 603T142 668T205 709T289 724Q329 724 359 712T411 680T442 633T453 576Q453 538 439 512T408 463T377 421T363 374Q363 350 378 334T415 305T463 278T512 247T549 203T564 137Q564 105 553 78T520 31T468 0T401
-12Z" />
<glyph unicode="&#xe0;" glyph-name="agrave" d="M246 -12Q212 -12 182 -3T130 24T94 67T81 126Q81 167 100 197T162 250T272 286T433 308Q432 333 425 355T403 393T364 420T304 430Q256 430 212 412T134 372L102 428Q120 440 144 452T196 475T255 491T318 498Q418
498 466 444T515 298V0H448L441 66H438Q397 34 348 11T246 -12ZM268 54Q310 54 350 72T433 126V254Q355 248 303 237T219 211T174 176T161 132Q161 111 170 97T193 73T227 59T268 54ZM341 568L184 721L242 777L384 609L341 568Z" />
<glyph unicode="&#xe1;" glyph-name="aacute" d="M246 -12Q212 -12 182 -3T130 24T94 67T81 126Q81 167 100 197T162 250T272 286T433 308Q432 333 425 355T403 393T364 420T304 430Q256 430 212 412T134 372L102 428Q120 440 144 452T196 475T255 491T318 498Q418
498 466 444T515 298V0H448L441 66H438Q397 34 348 11T246 -12ZM268 54Q310 54 350 72T433 126V254Q355 248 303 237T219 211T174 176T161 132Q161 111 170 97T193 73T227 59T268 54ZM299 568L256 609L398 777L456 721L299 568Z" />
<glyph unicode="&#xe2;" glyph-name="acircumflex" d="M246 -12Q212 -12 182 -3T130 24T94 67T81 126Q81 167 100 197T162 250T272 286T433 308Q432 333 425 355T403 393T364 420T304 430Q256 430 212 412T134 372L102 428Q120 440 144 452T196 475T255 491T318
498Q418 498 466 444T515 298V0H448L441 66H438Q397 34 348 11T246 -12ZM268 54Q310 54 350 72T433 126V254Q355 248 303 237T219 211T174 176T161 132Q161 111 170 97T193 73T227 59T268 54ZM200 568L165 600L279 740H361L475 600L440 568L322 681H318L200 568Z"
/>
<glyph unicode="&#xe3;" glyph-name="atilde" d="M246 -12Q212 -12 182 -3T130 24T94 67T81 126Q81 167 100 197T162 250T272 286T433 308Q432 333 425 355T403 393T364 420T304 430Q256 430 212 412T134 372L102 428Q120 440 144 452T196 475T255 491T318 498Q418
498 466 444T515 298V0H448L441 66H438Q397 34 348 11T246 -12ZM268 54Q310 54 350 72T433 126V254Q355 248 303 237T219 211T174 176T161 132Q161 111 170 97T193 73T227 59T268 54ZM392 577Q365 577 346 590T311 619T281 648T249 661Q226 661 215 639T202 582L147
585Q148 614 154 639T173 682T203 710T248 721Q275 721 294 708T329 679T359 650T392 637Q414 637 425 659T438 716L493 712Q492 683 486 659T467 616T437 588T392 577Z" />
<glyph unicode="&#xe4;" glyph-name="adieresis" d="M246 -12Q212 -12 182 -3T130 24T94 67T81 126Q81 167 100 197T162 250T272 286T433 308Q432 333 425 355T403 393T364 420T304 430Q256 430 212 412T134 372L102 428Q120 440 144 452T196 475T255 491T318
498Q418 498 466 444T515 298V0H448L441 66H438Q397 34 348 11T246 -12ZM268 54Q310 54 350 72T433 126V254Q355 248 303 237T219 211T174 176T161 132Q161 111 170 97T193 73T227 59T268 54ZM223 588Q199 588 184 604T168 644Q168 667 183 683T223 700Q247 700
262 684T278 644Q278 620 263 604T223 588ZM417 588Q393 588 378 604T362 644Q362 667 377 683T417 700Q441 700 456 684T472 644Q472 620 457 604T417 588Z" />
<glyph unicode="&#xe5;" glyph-name="aring" d="M246 -12Q212 -12 182 -3T130 24T94 67T81 126Q81 167 100 197T162 250T272 286T433 308Q432 333 425 355T403 393T364 420T304 430Q256 430 212 412T134 372L102 428Q120 440 144 452T196 475T255 491T318 498Q418
498 466 444T515 298V0H448L441 66H438Q397 34 348 11T246 -12ZM268 54Q310 54 350 72T433 126V254Q355 248 303 237T219 211T174 176T161 132Q161 111 170 97T193 73T227 59T268 54ZM320 569Q268 569 239 596T210 665Q210 706 239 733T320 761Q372 761 401 734T430
665Q430 624 401 597T320 569ZM320 606Q344 606 360 623T377 665Q377 691 361 707T320 724Q296 724 280 708T263 665Q263 640 279 623T320 606Z" />
<glyph unicode="&#xe6;" glyph-name="ae" d="M145 -12Q89 -12 53 23T17 120Q17 194 75 239T266 302Q264 373 240 401T178 430Q148 430 118 418T64 390L33 446Q63 466 102 482T185 498Q229 498 260 475T308 398Q333 452 370 475T448 498Q486 498 514 480T560 432T588
361T597 276Q597 262 596 248T593 220H332Q336 143 368 99T457 55Q485 55 508 64T552 87L582 31Q557 13 525 1T454 -12Q403 -12 366 10T304 75Q269 33 230 11T145 -12ZM167 54Q195 54 226 71T283 123Q266 177 266 242V249Q215 241 182 230T129 203T101 169T93 128Q93
93 113 74T167 54ZM443 433Q405 433 373 399T333 284H530Q526 433 443 433Z" />
<glyph unicode="&#xe7;" glyph-name="ccedilla" d="M346 -12Q289 -12 241 5T156 54T100 134T80 242Q80 303 101 350T160 431T246 481T351 498Q411 498 454 477T528 427L487 374Q457 400 425 415T354 430Q312 430 277 417T218 378T179 319T165 242Q165 200 178
166T216 108T275 70T352 56Q397 56 434 73T502 117L539 64Q498 28 449 8T346 -12ZM259 -226L251 -186Q314 -181 337 -170T360 -136Q360 -116 343 -105T283 -88L323 8H377L351 -64Q386 -72 405 -88T424 -135Q424 -179 382 -200T259 -226Z" />
<glyph unicode="&#xe8;" glyph-name="egrave" d="M330 -12Q275 -12 228 5T145 55T89 135T68 244Q68 303 88 350T143 430T222 480T316 498Q368 498 409 482T479 435T523 363T538 270Q538 256 537 243T534 220H151Q159 137 211 96T340 54Q384 54 419 66T488 100L518
46Q482 22 436 5T330 -12ZM318 433Q288 433 261 423T211 395T174 348T153 284H463Q458 359 420 396T318 433ZM337 568L180 721L238 777L380 609L337 568Z" />
<glyph unicode="&#xe9;" glyph-name="eacute" d="M330 -12Q275 -12 228 5T145 55T89 135T68 244Q68 303 88 350T143 430T222 480T316 498Q368 498 409 482T479 435T523 363T538 270Q538 256 537 243T534 220H151Q159 137 211 96T340 54Q384 54 419 66T488 100L518
46Q482 22 436 5T330 -12ZM318 433Q288 433 261 423T211 395T174 348T153 284H463Q458 359 420 396T318 433ZM295 568L252 609L394 777L452 721L295 568Z" />
<glyph unicode="&#xea;" glyph-name="ecircumflex" d="M330 -12Q275 -12 228 5T145 55T89 135T68 244Q68 303 88 350T143 430T222 480T316 498Q368 498 409 482T479 435T523 363T538 270Q538 256 537 243T534 220H151Q159 137 211 96T340 54Q384 54 419 66T488
100L518 46Q482 22 436 5T330 -12ZM318 433Q288 433 261 423T211 395T174 348T153 284H463Q458 359 420 396T318 433ZM196 568L161 600L275 740H357L471 600L436 568L318 681H314L196 568Z" />
<glyph unicode="&#xeb;" glyph-name="edieresis" d="M330 -12Q275 -12 228 5T145 55T89 135T68 244Q68 303 88 350T143 430T222 480T316 498Q368 498 409 482T479 435T523 363T538 270Q538 256 537 243T534 220H151Q159 137 211 96T340 54Q384 54 419 66T488 100L518
46Q482 22 436 5T330 -12ZM318 433Q288 433 261 423T211 395T174 348T153 284H463Q458 359 420 396T318 433ZM219 588Q195 588 180 604T164 644Q164 667 179 683T219 700Q243 700 258 684T274 644Q274 620 259 604T219 588ZM413 588Q389 588 374 604T358 644Q358
667 373 683T413 700Q437 700 452 684T468 644Q468 620 453 604T413 588Z" />
<glyph unicode="&#xec;" glyph-name="igrave" d="M316 0V419H90V486H398V0H316ZM369 568L212 721L270 777L412 609L369 568Z" />
<glyph unicode="&#xed;" glyph-name="iacute" d="M316 0V419H90V486H398V0H316ZM327 568L284 609L426 777L484 721L327 568Z" />
<glyph unicode="&#xee;" glyph-name="icircumflex" d="M316 0V419H90V486H398V0H316ZM228 568L193 600L307 740H389L503 600L468 568L350 681H346L228 568Z" />
<glyph unicode="&#xef;" glyph-name="idieresis" d="M316 0V419H90V486H398V0H316ZM251 588Q227 588 212 604T196 644Q196 667 211 683T251 700Q275 700 290 684T306 644Q306 620 291 604T251 588ZM445 588Q421 588 406 604T390 644Q390 667 405 683T445 700Q469
700 484 684T500 644Q500 620 485 604T445 588Z" />
<glyph unicode="&#xf0;" glyph-name="eth" d="M298 -12Q251 -12 208 4T132 50T80 124T60 222Q60 273 77 314T124 385T196 431T288 447Q335 447 377 426T447 367Q433 433 405 483T332 572L180 494L150 546L280 612Q254 630 226 646T165 678L203 730Q241 712 277
692T347 646L484 716L514 666L396 605Q459 544 497 460T536 257Q536 197 520 148T472 63T397 8T298 -12ZM300 56Q340 56 369 70T418 111T447 174T457 254Q457 265 457 276T456 298Q421 345 380 364T300 383Q260 383 230 371T179 337T148 286T137 222Q137 184 150
154T185 102T237 68T300 56Z" />
<glyph unicode="&#xf1;" glyph-name="ntilde" d="M93 0V486H161L168 403H172Q210 444 254 471T355 498Q442 498 482 449T523 302V0H441V291Q441 360 415 393T329 427Q307 427 289 422T252 405T215 378T175 339V0H93ZM390 577Q363 577 344 590T309 619T279 648T247
661Q224 661 213 639T200 582L145 585Q146 614 152 639T171 682T201 710T246 721Q273 721 292 708T327 679T357 650T390 637Q412 637 423 659T436 716L491 712Q490 683 484 659T465 616T435 588T390 577Z" />
<glyph unicode="&#xf2;" glyph-name="ograve" d="M300 -12Q252 -12 209 5T132 54T80 134T60 242Q60 303 79 350T132 431T208 481T300 498Q348 498 391 481T468 431T520 351T540 242Q540 182 521 135T468 55T392 5T300 -12ZM300 56Q335 56 363 69T412 107T444 166T455
242Q455 284 444 318T413 378T364 416T300 430Q265 430 237 417T188 378T156 319T145 242Q145 200 156 166T187 108T236 70T300 56ZM321 568L164 721L222 777L364 609L321 568Z" />
<glyph unicode="&#xf3;" glyph-name="oacute" d="M300 -12Q252 -12 209 5T132 54T80 134T60 242Q60 303 79 350T132 431T208 481T300 498Q348 498 391 481T468 431T520 351T540 242Q540 182 521 135T468 55T392 5T300 -12ZM300 56Q335 56 363 69T412 107T444 166T455
242Q455 284 444 318T413 378T364 416T300 430Q265 430 237 417T188 378T156 319T145 242Q145 200 156 166T187 108T236 70T300 56ZM279 568L236 609L378 777L436 721L279 568Z" />
<glyph unicode="&#xf4;" glyph-name="ocircumflex" d="M300 -12Q252 -12 209 5T132 54T80 134T60 242Q60 303 79 350T132 431T208 481T300 498Q348 498 391 481T468 431T520 351T540 242Q540 182 521 135T468 55T392 5T300 -12ZM300 56Q335 56 363 69T412 107T444
166T455 242Q455 284 444 318T413 378T364 416T300 430Q265 430 237 417T188 378T156 319T145 242Q145 200 156 166T187 108T236 70T300 56ZM180 568L145 600L259 740H341L455 600L420 568L302 681H298L180 568Z" />
<glyph unicode="&#xf5;" glyph-name="otilde" d="M300 -12Q252 -12 209 5T132 54T80 134T60 242Q60 303 79 350T132 431T208 481T300 498Q348 498 391 481T468 431T520 351T540 242Q540 182 521 135T468 55T392 5T300 -12ZM300 56Q335 56 363 69T412 107T444 166T455
242Q455 284 444 318T413 378T364 416T300 430Q265 430 237 417T188 378T156 319T145 242Q145 200 156 166T187 108T236 70T300 56ZM372 577Q345 577 326 590T291 619T261 648T229 661Q206 661 195 639T182 582L127 585Q128 614 134 639T153 682T183 710T228 721Q255
721 274 708T309 679T339 650T372 637Q394 637 405 659T418 716L473 712Q472 683 466 659T447 616T417 588T372 577Z" />
<glyph unicode="&#xf6;" glyph-name="odieresis" d="M300 -12Q252 -12 209 5T132 54T80 134T60 242Q60 303 79 350T132 431T208 481T300 498Q348 498 391 481T468 431T520 351T540 242Q540 182 521 135T468 55T392 5T300 -12ZM300 56Q335 56 363 69T412 107T444
166T455 242Q455 284 444 318T413 378T364 416T300 430Q265 430 237 417T188 378T156 319T145 242Q145 200 156 166T187 108T236 70T300 56ZM203 588Q179 588 164 604T148 644Q148 667 163 683T203 700Q227 700 242 684T258 644Q258 620 243 604T203 588ZM397 588Q373
588 358 604T342 644Q342 667 357 683T397 700Q421 700 436 684T452 644Q452 620 437 604T397 588Z" />
<glyph unicode="&#xf7;" glyph-name="divide" d="M300 456Q277 456 262 471T246 510Q246 533 261 548T300 563Q323 563 338 548T354 510Q354 486 339 471T300 456ZM300 96Q277 96 262 111T246 150Q246 173 261 188T300 203Q323 203 338 188T354 150Q354 126 339
111T300 96ZM85 299V361H515V299H85Z" />
<glyph unicode="&#xf8;" glyph-name="oslash" d="M300 -12Q221 -12 160 31L108 -30L62 12L115 74Q89 106 75 148T60 242Q60 303 79 350T132 431T208 481T300 498Q379 498 440 455L492 516L538 474L485 412Q511 380 525 338T540 242Q540 182 521 135T468 55T392
5T300 -12ZM145 242Q145 182 168 136L392 399Q354 432 300 432Q265 432 237 418T188 379T156 319T145 242ZM300 54Q335 54 363 68T412 106T444 165T455 242Q455 305 432 349L207 86Q226 71 249 63T300 54Z" />
<glyph unicode="&#xf9;" glyph-name="ugrave" d="M246 -12Q158 -12 118 37T77 184V486H160V195Q160 126 185 93T272 59Q314 59 348 80T423 149V486H505V0H438L431 85H427Q390 42 347 15T246 -12ZM573 568L416 721L474 777L616 609L573 568Z" />
<glyph unicode="&#xfa;" glyph-name="uacute" d="M246 -12Q158 -12 118 37T77 184V486H160V195Q160 126 185 93T272 59Q314 59 348 80T423 149V486H505V0H438L431 85H427Q390 42 347 15T246 -12ZM531 568L488 609L630 777L688 721L531 568Z" />
<glyph unicode="&#xfb;" glyph-name="ucircumflex" d="M246 -12Q158 -12 118 37T77 184V486H160V195Q160 126 185 93T272 59Q314 59 348 80T423 149V486H505V0H438L431 85H427Q390 42 347 15T246 -12ZM432 568L397 600L511 740H593L707 600L672 568L554 681H550L432 568Z" />
<glyph unicode="&#xfc;" glyph-name="udieresis" d="M246 -12Q158 -12 118 37T77 184V486H160V195Q160 126 185 93T272 59Q314 59 348 80T423 149V486H505V0H438L431 85H427Q390 42 347 15T246 -12ZM455 588Q431 588 416 604T400 644Q400 667 415 683T455 700Q479
700 494 684T510 644Q510 620 495 604T455 588ZM649 588Q625 588 610 604T594 644Q594 667 609 683T649 700Q673 700 688 684T704 644Q704 620 689 604T649 588Z" />
<glyph unicode="&#xfd;" glyph-name="yacute" d="M131 -209Q95 -209 67 -199L84 -134Q94 -137 105 -139T128 -141Q179 -141 211 -112T261 -37L276 -1L49 486H132L251 217Q265 185 280 148T311 76H315Q328 111 341 147T367 217L473 486H551L337 -40Q323 -76 305
-107T262 -160T205 -196T131 -209ZM283 568L240 609L382 777L440 721L283 568Z" />
<glyph unicode="&#xfe;" glyph-name="thorn" d="M93 -205V712H175V511L172 424H175Q209 458 251 478T337 498Q386 498 424 481T487 431T526 353T540 250Q540 188 522 140T473 57T402 6T319 -12Q283 -12 245 5T175 51H172L175 -41V-205H93ZM305 57Q337 57 364 70T412
108T443 169T455 250Q455 330 423 379T317 429Q285 429 249 412T175 356V114Q210 83 244 70T305 57Z" />
<glyph unicode="&#xff;" glyph-name="ydieresis" d="M131 -209Q95 -209 67 -199L84 -134Q94 -137 105 -139T128 -141Q179 -141 211 -112T261 -37L276 -1L49 486H132L251 217Q265 185 280 148T311 76H315Q328 111 341 147T367 217L473 486H551L337 -40Q323 -76
305 -107T262 -160T205 -196T131 -209ZM207 588Q183 588 168 604T152 644Q152 667 167 683T207 700Q231 700 246 684T262 644Q262 620 247 604T207 588ZM401 588Q377 588 362 604T346 644Q346 667 361 683T401 700Q425 700 440 684T456 644Q456 620 441 604T401
588Z" />
<glyph unicode="&#x2013;" glyph-name="endash" d="M80 216V288H520V216H80Z" />
<glyph unicode="&#x2014;" glyph-name="emdash" d="M0 216V288H600V216H0Z" />
<glyph unicode="&#x2018;" glyph-name="quoteleft" d="M299 350Q260 350 235 381T209 470Q209 545 247 604T353 699L380 651Q334 624 307 585T277 493Q289 499 303 499Q334 499 353 479T373 427Q373 392 352 371T299 350Z" />
<glyph unicode="&#x2019;" glyph-name="quoteright" d="M245 350L217 398Q264 424 291 463T321 556Q309 550 295 550Q263 550 244 569T224 621Q224 656 245 677T298 699Q338 699 363 667T388 578Q388 503 350 444T245 350Z" />
<glyph unicode="&#x201a;" glyph-name="quotesinglbase" d="M245 -225L217 -177Q264 -151 291 -112T321 -19Q309 -25 295 -25Q263 -25 244 -6T224 46Q224 81 245 102T298 124Q338 124 363 92T388 3Q388 -72 350 -131T245 -225Z" />
<glyph unicode="&#x201c;" glyph-name="quotedblleft" d="M441 350Q402 350 377 381T351 470Q351 545 389 604T495 699L522 651Q476 624 449 585T419 493Q431 499 445 499Q476 499 495 479T515 427Q515 392 494 371T441 350ZM414 350Q375 350 350 381T324 470Q324
545 362 604T468 699L495 651Q449 624 422 585T392 493Q404 499 418 499Q449 499 468 479T488 427Q488 392 467 371T414 350Z" />
<glyph unicode="&#x201d;" glyph-name="quotedblright" d="M387 350L359 398Q406 424 433 463T463 556Q451 550 437 550Q405 550 386 569T366 621Q366 656 387 677T440 699Q480 699 505 667T530 578Q530 503 492 444T387 350ZM360 350L332 398Q379 424 406 463T436
556Q424 550 410 550Q378 550 359 569T339 621Q339 656 360 677T413 699Q453 699 478 667T503 578Q503 503 465 444T360 350Z" />
<glyph unicode="&#x201e;" glyph-name="quotedblbase" d="M131 -225L103 -177Q150 -151 177 -112T207 -19Q195 -25 181 -25Q149 -25 130 -6T110 46Q110 81 131 102T184 124Q224 124 249 92T274 3Q274 -72 236 -131T131 -225ZM360 -225L332 -177Q379 -151 406 -112T436
-19Q424 -25 410 -25Q378 -25 359 -6T339 46Q339 81 360 102T413 124Q453 124 478 92T503 3Q503 -72 465 -131T360 -225Z" />
<glyph unicode="&#x2022;" glyph-name="bullet" d="M300 115Q270 115 243 125T196 155T163 202T151 262Q151 295 163 322T195 368T243 398T300 409Q330 409 357 399T404 369T437 322T449 262Q449 229 437 202T405 156T357 126T300 115Z" />
<glyph unicode="&#x2039;" glyph-name="guilsinglleft" d="M350 52L197 212V292L350 452L389 417L262 252L389 86L350 52Z" />
<glyph unicode="&#x203a;" glyph-name="guilsinglright" d="M250 52L211 86L338 252L211 417L250 452L403 292V212L250 52Z" />
</font>
</defs>
</svg>
